找回密码

蓝光电影网

查看: 9|回复: 0

[剧情] 荣誉之客 Guest.Of.Honour.2019.1080p.WEB-DL.DD5.1.H264-FGT 3.98GB

[复制链接]
蓝光币
382
发表于 2021-8-20 00:37:15 | 显示全部楼层 |阅读模式


◎译  名 声誉之客 / Guest of Honor / 出格嘉宾(台)
◎片  名 Guest of Honour
◎年  代 2019
◎产  地 加拿大
◎类  别 剧情
◎语  言 英语
◎上映日期 2019-09-03(威尼斯电影节) / 2020-07-10(加拿大)
◎IMDb评分  5.5/10 from 362 users
◎IMDb链接  https://www.imdb.com/title/tt9143636
◎豆瓣评分 0/10 from 0 users
◎豆瓣链接 https://movie.douban.com/subject/30425476/
◎片  长 105分钟
◎导  演 阿托姆·伊戈扬 Atom Egoyan
◎编  剧 阿托姆·伊戈扬 Atom Egoyan
◎主  演 大卫·休里斯 David Thewlis
       卢克·威尔逊 Luke Wilson
       盖奇·芒罗 Gage Munroe
       罗西弗·萨瑟兰 Rossif Sutherland
       塔玛拉·波戴米斯基 Tamara Podemski
       蕾斯拉·德·奥利维拉 Laysla De Oliveira

◎标  签 加拿大 | 加拿大电影 | 2019 | 阿托姆·伊戈扬 | 大卫·休里斯 | 威尼斯电影节 | Atom.Egoyan | 家庭
◎简  介

  
  该片故事围绕一对父女之间复杂、布满奥秘历史的关系展开。该片入围第76届威尼斯电影节主比赛单元,同时入选第44届多伦多电影节出格展映单元。
◎获奖情况  
  第76届威尼斯电影节(2019)
  主比赛单元 金狮奖 (提名) 阿托姆·伊戈扬
  1. Video
  2. ID                                       : 1
  3. Format                                   : AVC
  4. Format/Info                              : Advanced Video Codec
  5. Format profile                           : [email protected]
  6. Format settings                          : CABAC / 4 Ref Frames
  7. Format settings, CABAC                   : Yes
  8. Format settings, Reference frames        : 4 frames
  9. Codec ID                                 : V_MPEG4/ISO/AVC
  10. Duration                                 : 1 h 43 min
  11. Bit rate                                 : 5 116 kb/s
  12. Width                                    : 1 920 pixels
  13. Height                                   : 1 032 pixels
  14. Display aspect ratio                     : 1.85:1
  15. Frame rate mode                          : Constant
  16. Frame rate                               : 24.000 FPS
  17. Color space                              : YUV
  18. Chroma subsampling                       : 4:2:0
  19. Bit depth                                : 8 bits
  20. Scan type                                : Progressive
  21. Bits/(Pixel*Frame)                       : 0.108
  22. Stream size                              : 3.70 GiB (93%)
  23. Title                                    : Guest.Of.Honour.2019.1080p.WEB-DL.DD5.1.H264-FGT
  24. Language                                 : English
  25. Default                                  : Yes
  26. Forced                                   : No
  27. Color range                              : Limited
  28. Color primaries                          : BT.709
  29. Transfer characteristics                 : BT.709
  30. Matrix coefficients                      : BT.709
  31. Audio
  32. ID                                       : 2
  33. Format                                   : AC-3
  34. Format/Info                              : Audio Coding 3
  35. Commercial name                          : Dolby Digital
  36. Codec ID                                 : A_AC3
  37. Duration                                 : 1 h 43 min
  38. Bit rate mode                            : Constant
  39. Bit rate                                 : 384 kb/s
  40. Channel(s)                               : 6 channels
  41. Channel layout                           : L R C LFE Ls Rs
  42. Sampling rate                            : 48.0 kHz
  43. Frame rate                               : 31.250 FPS (1536 SPF)
  44. Bit depth                                : 16 bits
  45. Compression mode                         : Lossy
  46. Stream size                              : 285 MiB (7%)
  47. Title                                    : Guest.Of.Honour.2019.1080p.WEB-DL.DD5.1.H264-FGT
  48. Language                                 : English
  49. Service kind                             : Complete Main
  50. Default                                  : Yes
  51. Forced                                   : No
  52. Text
  53. ID                                       : 3
  54. Format                                   : UTF-8
  55. Codec ID                                 : S_TEXT/UTF8
  56. Codec ID/Info                            : UTF-8 Plain Text
  57. Duration                                 : 1 h 34 min
  58. Bit rate                                 : 53 b/s
  59. Count of elements                        : 1245
  60. Stream size                              : 37.2 KiB (0%)
  61. Language                                 : English
  62. Default                                  : Yes
  63. Forced                                   : No
  64. Menu
  65. 00:00:00.000                             : en:01
  66. 00:06:59.000                             : en:02
  67. 00:13:48.000                             : en:03
  68. 00:19:49.000                             : en:04
  69. 00:26:41.000                             : en:05
  70. 00:33:57.000                             : en:06
  71. 00:40:25.000                             : en:07
  72. 00:46:59.000                             : en:08
  73. 00:53:26.000                             : en:09
  74. 01:00:00.000                             : en:10
  75. 01:06:51.000                             : en:11
  76. 01:14:19.000                             : en:12
  77. 01:19:51.000                             : en:13
  78. 01:26:33.000                             : en:14
  79. 01:33:30.000                             : en:15
  80. 01:39:44.000                             : en:16
复制代码





                                       
                                       

                                       
                                       
                                       




回复

使用道具 举报

懒得打字嘛,点击右侧快捷回复 【右侧内容,后台自定义】
您需要登录后才可以回帖 登录 | 立即加入

本版积分规则

Archiver|小黑屋| 蓝光电影网 |网站地图

Copyright © 2021 Comsenz Inc. Powered by 蓝光电影网

蓝光电影网

本站内容由用户自主分享和转载自互联网,转载目的在于传递更多信息,并不代表本网赞同其观点和对其真实性负责。

如有侵权、违反国家法律政策行为,请联系我们,我们会第一时间及时清除和处理!

举报反馈邮箱:[email protected]

快速回复 返回顶部 返回列表