找回密码

蓝光电影网

查看: 14|回复: 0

[剧情] 柠檬汽水 Lemonade.2018.1080p.NF.WEBRip.DDP5.1.x264-ETHiCS 1.99GB

[复制链接]
蓝光币
426
发表于 2021-8-20 00:37:28 | 显示全部楼层 |阅读模式


◎译  名 柠檬汽水 / Luna de miere
◎片  名 Lemonade
◎年  代 2018
◎产  地 罗马尼亚 / 加拿大
◎类  别 剧情
◎语  言 英语 / 罗马尼亚语
◎上映日期 2018-02-19(柏林电影节)
◎IMDb评分  6.7/10 from 859 users
◎IMDb链接  https://www.imdb.com/title/tt6506276
◎豆瓣评分 6.9/10 from 106 users
◎豆瓣链接 https://movie.douban.com/subject/27043909/
◎片  长 88分钟
◎导  演 尤安娜·乌里卡鲁 Ioana Uricaru
◎编  剧 Tatiana Ionascu / 尤安娜·乌里卡鲁 Ioana Uricaru
◎主  演 M?lina Manovici
       Dylan Smith
       Steve Bacic
       Milan Hurduc

◎标  签 罗马尼亚 | 剧情 | 美国 | 家庭 | 2018 | 欧洲 | 移民 | 羅馬尼亞
◎简  介

  
  罗马尼亚的单亲妈妈“玛拉”,在美国短期工作时与病人丹尼尔相爱并成婚了。婚后,玛拉把她的儿子德拉戈斯接到美国,预备让他在这里起头新的生活。德拉戈斯起头并不愿意,但也渐渐熟悉并顺应了新的情况,与他的继父关系越来越好,顺遂进入了当地黉舍就读。但是,工作并不如设想中那末顺遂......绿卡申请被频频检查,要想法摆脱移民官的骚扰,还要忍受丈夫的猜疑,玛拉将若何带着孩子起头新的生活……
◎获奖情况  
  第34届美国自力精神奖(2019)
  值得关注新人奖(提名) 约阿娜·乌里卡鲁
  1. Video
  2. ID                                       : 1
  3. Format                                   : AVC
  4. Format/Info                              : Advanced Video Codec
  5. Format profile                           : [email protected]
  6. Format settings                          : CABAC / 3 Ref Frames
  7. Format settings, CABAC                   : Yes
  8. Format settings, Reference frames        : 3 frames
  9. Codec ID                                 : V_MPEG4/ISO/AVC
  10. Duration                                 : 1 h 28 min
  11. Bit rate mode                            : Variable
  12. Bit rate                                 : 2 610 kb/s
  13. Maximum bit rate                         : 3 915 kb/s
  14. Width                                    : 1 920 pixels
  15. Height                                   : 1 080 pixels
  16. Display aspect ratio                     : 16:9
  17. Frame rate mode                          : Constant
  18. Frame rate                               : 24.000 FPS
  19. Color space                              : YUV
  20. Chroma subsampling                       : 4:2:0
  21. Bit depth                                : 8 bits
  22. Scan type                                : Progressive
  23. Bits/(Pixel*Frame)                       : 0.052
  24. Stream size                              : 1.56 GiB (78%)
  25. Writing library                          : x264 core 148 r2715 7e75228
  26. Encoding settings                        : cabac=1 / ref=3 / deblock=1:0:0 / analyse=0x1:0x111 / me=umh / subme=10 / psy=1 / psy_rd=1.00:0.00 / mixed_ref=1 / me_range=24 / chroma_me=1 / trellis=2 / 8x8dct=0 / cqm=0 / deadzone=21,11 / fast_pskip=1 / chroma_qp_offset=-2 / threads=8 / lookahead_threads=1 / sliced_threads=0 / nr=0 / decimate=1 / interlaced=0 / bluray_compat=0 / stitchable=1 / constrained_intra=0 / bframes=2 / b_pyramid=0 / b_adapt=2 / b_bias=0 / direct=3 / weightb=1 / open_gop=0 / weightp=2 / keyint=250 / keyint_min=24 / scenecut=0 / intra_refresh=0 / rc_lookahead=48 / rc=2pass / mbtree=1 / bitrate=2610 / ratetol=1.0 / qcomp=0.50 / qpmin=6 / qpmax=51 / qpstep=4 / cplxblur=20.0 / qblur=0.5 / vbv_maxrate=3915 / vbv_bufsize=5220 / nal_hrd=vbr / filler=0 / ip_ratio=1.40 / aq=1:1.00
  27. Default                                  : Yes
  28. Forced                                   : No
  29. Audio
  30. ID                                       : 2
  31. Format                                   : E-AC-3
  32. Format/Info                              : Enhanced AC-3
  33. Commercial name                          : Dolby Digital Plus
  34. Codec ID                                 : A_EAC3
  35. Duration                                 : 1 h 28 min
  36. Bit rate mode                            : Constant
  37. Bit rate                                 : 640 kb/s
  38. Channel(s)                               : 6 channels
  39. Channel layout                           : L R C LFE Ls Rs
  40. Sampling rate                            : 48.0 kHz
  41. Frame rate                               : 31.250 FPS (1536 SPF)
  42. Compression mode                         : Lossy
  43. Stream size                              : 403 MiB (20%)
  44. Service kind                             : Complete Main
  45. Default                                  : Yes
  46. Forced                                   : No
  47. Encoded date                             : UTC 2019-11-18 12:48:42
  48. Text
  49. ID                                       : 3
  50. Format                                   : UTF-8
  51. Codec ID                                 : S_TEXT/UTF8
  52. Codec ID/Info                            : UTF-8 Plain Text
  53. Language                                 : English
  54. Default                                  : No
  55. Forced                                   : No
复制代码






                                       
                                       

                                       
                                       
                                       




回复

使用道具 举报

懒得打字嘛,点击右侧快捷回复 【右侧内容,后台自定义】
您需要登录后才可以回帖 登录 | 立即加入

本版积分规则

Archiver|小黑屋| 蓝光电影网 |网站地图

Copyright © 2021 Comsenz Inc. Powered by 蓝光电影网

蓝光电影网

本站内容由用户自主分享和转载自互联网,转载目的在于传递更多信息,并不代表本网赞同其观点和对其真实性负责。

如有侵权、违反国家法律政策行为,请联系我们,我们会第一时间及时清除和处理!

举报反馈邮箱:[email protected]

快速回复 返回顶部 返回列表