找回密码

蓝光电影网

查看: 16|回复: 0

[剧情] 谍海危情/谎言的遗产 Legacy.of.Lies.2020.1080p.AMZN.WEBRip.DDP5.1.x264-NTG 4.44GB

[复制链接]
蓝光币
382
发表于 2021-8-20 00:38:03 | 显示全部楼层 |阅读模式


◎译  名 谍海危情 / 假话的遗产
◎片  名 Legacy of Lies
◎年  代 2020
◎产  地 荷兰 / 英国 / 波兰 / 乌克兰 / 美国
◎类  别 剧情 / 惊悚 / 犯罪
◎语  言 英语 / 乌克兰语 / 俄语
◎上映日期 2020-07-28(美国)
◎IMDb链接  https://www.imdb.com/title/tt6834916
◎豆瓣评分 5.9/10 from 194 users
◎豆瓣链接 https://movie.douban.com/subject/33218225/
◎片  长 102分钟
◎导  演 Ad Bol
◎编  剧 Ad Bol
◎主  演 斯科特·阿金斯 Scott Adkins
       Anna Butkevych

◎标  签 行动 | 谍战 | 斯科特阿金斯 | 2020 | 英国 | 美国电影 | 剧情 | 爽片
◎简  介

  
  阿金斯饰演一位前MI6情报局奸细。已经退休的他发现自己在某一天中因不明缘由又被卷入危机四伏的特务收集合,而策划着惊天诡计的奥秘情报机构也在想方想法抹除他的存在。
  1. Video
  2. ID                                       : 1
  3. Format                                   : AVC
  4. Format/Info                              : Advanced Video Codec
  5. Format profile                           : [email protected]
  6. Format settings                          : CABAC / 4 Ref Frames
  7. Format settings, CABAC                   : Yes
  8. Format settings, Reference frames        : 4 frames
  9. Codec ID                                 : V_MPEG4/ISO/AVC
  10. Duration                                 : 1 h 41 min
  11. Bit rate mode                            : Constant
  12. Bit rate                                 : 5 637 kb/s
  13. Nominal bit rate                         : 10 000 kb/s
  14. Width                                    : 1 920 pixels
  15. Height                                   : 800 pixels
  16. Display aspect ratio                     : 2.40:1
  17. Frame rate mode                          : Constant
  18. Frame rate                               : 23.976 (24000/1001/189150) FPS
  19. Color space                              : YUV
  20. Chroma subsampling                       : 4:2:0
  21. Bit depth                                : 8 bits
  22. Scan type                                : Progressive
  23. Bits/(Pixel*Frame)                       : 0.153
  24. Stream size                              : 3.99 GiB (90%)
  25. Default                                  : Yes
  26. Forced                                   : No
  27. Color range                              : Limited
  28. Color primaries                          : BT.709
  29. Transfer characteristics                 : BT.709
  30. Matrix coefficients                      : BT.709
  31. Audio
  32. ID                                       : 2
  33. Format                                   : E-AC-3
  34. Format/Info                              : Enhanced AC-3
  35. Commercial name                          : Dolby Digital Plus
  36. Codec ID                                 : A_EAC3
  37. Duration                                 : 1 h 41 min
  38. Bit rate mode                            : Constant
  39. Bit rate                                 : 640 kb/s
  40. Channel(s)                               : 6 channels
  41. Channel layout                           : L R C LFE Ls Rs
  42. Sampling rate                            : 48.0 kHz
  43. Frame rate                               : 31.250 FPS (1536 SPF)
  44. Compression mode                         : Lossy
  45. Stream size                              : 464 MiB (10%)
  46. Language                                 : English
  47. Service kind                             : Complete Main
  48. Default                                  : Yes
  49. Forced                                   : No
  50. Text #1
  51. ID                                       : 3
  52. Format                                   : UTF-8
  53. Codec ID                                 : S_TEXT/UTF8
  54. Codec ID/Info                            : UTF-8 Plain Text
  55. Duration                                 : 1 h 35 min
  56. Bit rate                                 : 38 b/s
  57. Count of elements                        : 854
  58. Stream size                              : 26.6 KiB (0%)
  59. Language                                 : English
  60. Default                                  : No
  61. Forced                                   : No
  62. Text #2
  63. ID                                       : 4
  64. Format                                   : UTF-8
  65. Codec ID                                 : S_TEXT/UTF8
  66. Codec ID/Info                            : UTF-8 Plain Text
  67. Duration                                 : 1 h 37 min
  68. Bit rate                                 : 41 b/s
  69. Count of elements                        : 1021
  70. Stream size                              : 29.6 KiB (0%)
  71. Title                                    : SDH
  72. Language                                 : English
  73. Default                                  : No
  74. Forced                                   : No
复制代码






                                       
                                       

                                       
                                       
                                       




回复

使用道具 举报

懒得打字嘛,点击右侧快捷回复 【右侧内容,后台自定义】
您需要登录后才可以回帖 登录 | 立即加入

本版积分规则

Archiver|小黑屋| 蓝光电影网 |网站地图

Copyright © 2021 Comsenz Inc. Powered by 蓝光电影网

蓝光电影网

本站内容由用户自主分享和转载自互联网,转载目的在于传递更多信息,并不代表本网赞同其观点和对其真实性负责。

如有侵权、违反国家法律政策行为,请联系我们,我们会第一时间及时清除和处理!

举报反馈邮箱:[email protected]

快速回复 返回顶部 返回列表