找回密码

蓝光电影网

查看: 31|回复: 0

[剧情] 血腥数字/带血的号码 Finders.Fee.2001.1080p.AMZN.WEBRip.DDP2.0.x264-alfaHD 9.99GB

[复制链接]
蓝光币
426
发表于 2021-8-20 00:38:27 | 显示全部楼层 |阅读模式


◎译  名 血腥数字 / 带血的号码
◎片  名 Finder's Fee
◎年  代 2001
◎产  地 加拿大 / 美国
◎类  别 剧情 / 惊悚
◎语  言 英语
◎上映日期 2001-06-19
◎IMDb评分  6.4/10 from 2167 users
◎IMDb链接  https://www.imdb.com/title/tt0192023
◎豆瓣评分 6.9/10 from 221 users
◎豆瓣链接 https://movie.douban.com/subject/1981739/
◎片  长 100 分钟
◎导  演 Jeff Probst
◎编  剧 Jeff Probst / Jim Gulian
◎主  演 Erik Palladino
       Ryan Reynolds
       Dash Mihok

◎标  签 悬疑 | 美国 | 人性 | 剧情 | 美国电影 | 心理 | 电影 | 我看过的电影
◎简  介

  
  --电影报告了这么个故事,纽约的年轻人泰普周末回家在路上拾到一个钱包,里面没什么工具,连钱也没有。当天早晨泰普已经约好了几个老朋友在他家打扑克文娱,在朋友来到之前泰普按照钱包里的一个电话号码留言给失主,说自己拾到了钱包希望对方上他家来支付,打完电话泰普忽然发现钱包里有一张彩票,彩票上的号码是中了当天乐透开出的巨奖600万美圆,泰普经过一番心理挣扎,终极将自己没中的彩票换了钱包里的彩票,你可以设想获得,泰普是何等地后悔打了阿谁电话。
  故事才刚刚起头,由于失主上门了。失主是位黑人出租司机,他看了泰普还给他的钱包后若无其事,并接管了泰普的朋友们的约请坐下来和他们一路玩扑克牌,整部电影就是泰普和黑人司机间的心理对抗,泰普想获得这笔钱,黑人老头晓得轻易拿不回自己的钱,可是为了家,为了自己的孙女,顽强地在对峙,而周边的人都蒙在鼓里。最初,几个朋友发觉了真相,并要求大师等分,但现在泰普良知发现,他决议并把彩票归还给了司机。人都走了,当他一小我留在家里的时辰他打电话给女友说“我爱你”时,我相信具有财富的感受布满了他的心里。
  电影在这个时辰竣事多好啊,可是没有,由于实在的失主上门了。
  --------------
  The story was inspired by a real-life incident. Jeff Probst found a man's wallet on the street, with a name but no phone number, so he called another person's number that was inside. The man who answered said he was a cousin of the owner, and instructed Probst to mail it to him. Probst says he has always wondered if the other man really was a cousin.
  1. Video
  2. ID                                       : 1
  3. Format                                   : AVC
  4. Format/Info                              : Advanced Video Codec
  5. Format profile                           : [email protected]
  6. Format settings                          : CABAC / 4 Ref Frames
  7. Format settings, CABAC                   : Yes
  8. Format settings, Reference frames        : 4 frames
  9. Codec ID                                 : V_MPEG4/ISO/AVC
  10. Duration                                 : 1 h 39 min
  11. Bit rate mode                            : Variable
  12. Bit rate                                 : 14.1 Mb/s
  13. Maximum bit rate                         : 15.0 Mb/s
  14. Width                                    : 1 920 pixels
  15. Height                                   : 1 080 pixels
  16. Display aspect ratio                     : 16:9
  17. Frame rate mode                          : Constant
  18. Frame rate                               : 23.976 (24000/1001/189150) FPS
  19. Color space                              : YUV
  20. Chroma subsampling                       : 4:2:0
  21. Bit depth                                : 8 bits
  22. Scan type                                : Progressive
  23. Bits/(Pixel*Frame)                       : 0.284
  24. Stream size                              : 9.83 GiB (98%)
  25. Writing library                          : x264 core 148 r2623 d5b2374
  26. Encoding settings                        : cabac=1 / ref=4 / deblock=1:-1:-1 / analyse=0x3:0x133 / me=umh / subme=9 / psy=1 / psy_rd=1.00:0.15 / mixed_ref=1 / me_range=24 / chroma_me=1 / trellis=2 / 8x8dct=1 / cqm=0 / deadzone=21,11 / fast_pskip=1 / chroma_qp_offset=-3 / threads=34 / lookahead_threads=5 / sliced_threads=0 / nr=150 / decimate=1 / interlaced=0 / bluray_compat=0 / constrained_intra=0 / bframes=8 / b_pyramid=2 / b_adapt=2 / b_bias=0 / direct=3 / weightb=1 / open_gop=0 / weightp=2 / keyint=120 / keyint_min=61 / scenecut=0 / intra_refresh=0 / rc_lookahead=120 / rc=crf / mbtree=1 / crf=18.0 / qcomp=0.60 / qpmin=0 / qpmax=69 / qpstep=4 / vbv_maxrate=15000 / vbv_bufsize=31250 / crf_max=0.0 / nal_hrd=vbr / filler=0 / ip_ratio=1.40 / aq=3:1.00
  27. Default                                  : Yes
  28. Forced                                   : No
  29. Color range                              : Limited
  30. Color primaries                          : BT.709
  31. Transfer characteristics                 : BT.709
  32. Matrix coefficients                      : BT.709
  33. Audio
  34. ID                                       : 2
  35. Format                                   : E-AC-3
  36. Format/Info                              : Enhanced AC-3
  37. Commercial name                          : Dolby Digital Plus
  38. Codec ID                                 : A_EAC3
  39. Duration                                 : 1 h 39 min
  40. Bit rate mode                            : Constant
  41. Bit rate                                 : 224 kb/s
  42. Channel(s)                               : 2 channels
  43. Channel layout                           : L R
  44. Sampling rate                            : 48.0 kHz
  45. Frame rate                               : 31.250 FPS (1536 SPF)
  46. Compression mode                         : Lossy
  47. Stream size                              : 160 MiB (2%)
  48. Language                                 : English
  49. Service kind                             : Complete Main
  50. Default                                  : Yes
  51. Forced                                   : No
  52. Text #1
  53. ID                                       : 3
  54. Format                                   : UTF-8
  55. Codec ID                                 : S_TEXT/UTF8
  56. Codec ID/Info                            : UTF-8 Plain Text
  57. Duration                                 : 1 h 37 min
  58. Bit rate                                 : 86 b/s
  59. Count of elements                        : 2167
  60. Stream size                              : 62.2 KiB (0%)
  61. Language                                 : English
  62. Default                                  : No
  63. Forced                                   : No
  64. Text #2
  65. ID                                       : 4
  66. Format                                   : UTF-8
  67. Codec ID                                 : S_TEXT/UTF8
  68. Codec ID/Info                            : UTF-8 Plain Text
  69. Duration                                 : 1 h 39 min
  70. Bit rate                                 : 86 b/s
  71. Count of elements                        : 2203
  72. Stream size                              : 62.8 KiB (0%)
  73. Title                                    : SDH
  74. Language                                 : English
  75. Default                                  : No
  76. Forced                                   : No
复制代码






                                       
                                       

                                       
                                       
                                       




回复

使用道具 举报

懒得打字嘛,点击右侧快捷回复 【右侧内容,后台自定义】
您需要登录后才可以回帖 登录 | 立即加入

本版积分规则

Archiver|小黑屋| 蓝光电影网 |网站地图

Copyright © 2021 Comsenz Inc. Powered by 蓝光电影网

蓝光电影网

本站内容由用户自主分享和转载自互联网,转载目的在于传递更多信息,并不代表本网赞同其观点和对其真实性负责。

如有侵权、违反国家法律政策行为,请联系我们,我们会第一时间及时清除和处理!

举报反馈邮箱:[email protected]

快速回复 返回顶部 返回列表