找回密码

蓝光电影网

查看: 33|回复: 0

[剧情] 深入虎穴 Out.of.Reach.2004.1080p.AMZN.WEBRip.AAC2.0.x264-alfaHD 5.94GB

[复制链接]
蓝光币
426
发表于 2021-8-20 00:38:32 | 显示全部楼层 |阅读模式


◎译  名 深入虎穴
◎片  名 Out of Reach
◎年  代 2004
◎产  地 美国 / 波兰
◎类  别 剧情 / 行动 / 恋爱 / 惊悚
◎语  言 英语
◎上映日期 2004-07-20
◎IMDb评分  4.0/10 from 4540 users
◎IMDb链接  https://www.imdb.com/title/tt0377100
◎豆瓣评分 5.7/10 from 194 users
◎豆瓣链接 https://movie.douban.com/subject/1433460/
◎片  长 86 分钟
◎导  演 Po-chih Leong
◎主  演 史蒂文·席格 Steven Seagal
       Ida Nowakowska
       Agnieszka Wagner
       马特·斯查尔兹 Matt Schulze
       Krzysztof Pieczynski

◎标  签 行动 | 美国 | StevenSeagal | 美国电影 | 犯罪 | 2004 | 电影 | 深入虎穴
◎简  介

  
  Billy Ray Lancing, a former covert agent turned survivalist, discovers that the foster program he is using to help a young girl is actually a human trafficking network. Lancing heads overseas to find the girl and shut down the operation.
  1. Video
  2. ID                                       : 1
  3. Format                                   : AVC
  4. Format/Info                              : Advanced Video Codec
  5. Format profile                           : [email protected]
  6. Format settings                          : CABAC / 4 Ref Frames
  7. Format settings, CABAC                   : Yes
  8. Format settings, Reference frames        : 4 frames
  9. Codec ID                                 : V_MPEG4/ISO/AVC
  10. Duration                                 : 1 h 25 min
  11. Bit rate mode                            : Constant
  12. Bit rate                                 : 10 000 kb/s
  13. Width                                    : 1 920 pixels
  14. Height                                   : 1 080 pixels
  15. Display aspect ratio                     : 16:9
  16. Frame rate mode                          : Constant
  17. Frame rate                               : 23.976 (24000/1001/189150) FPS
  18. Color space                              : YUV
  19. Chroma subsampling                       : 4:2:0
  20. Bit depth                                : 8 bits
  21. Scan type                                : Progressive
  22. Bits/(Pixel*Frame)                       : 0.201
  23. Stream size                              : 5.86 GiB (99%)
  24. Language                                 : English
  25. Default                                  : Yes
  26. Forced                                   : No
  27. Color range                              : Limited
  28. Color primaries                          : BT.709
  29. Transfer characteristics                 : BT.709
  30. Matrix coefficients                      : BT.709
  31. Audio
  32. ID                                       : 2
  33. Format                                   : AAC LC
  34. Format/Info                              : Advanced Audio Codec Low Complexity
  35. Codec ID                                 : A_AAC-2
  36. Duration                                 : 1 h 25 min
  37. Bit rate                                 : 125 kb/s
  38. Channel(s)                               : 2 channels
  39. Channel layout                           : L R
  40. Sampling rate                            : 48.0 kHz
  41. Frame rate                               : 46.875 FPS (1024 SPF)
  42. Compression mode                         : Lossy
  43. Stream size                              : 76.8 MiB (1%)
  44. Language                                 : English
  45. Default                                  : Yes
  46. Forced                                   : No
  47. Text
  48. ID                                       : 3
  49. Format                                   : UTF-8
  50. Codec ID                                 : S_TEXT/UTF8
  51. Codec ID/Info                            : UTF-8 Plain Text
  52. Duration                                 : 1 h 22 min
  53. Bit rate                                 : 44 b/s
  54. Count of elements                        : 1025
  55. Stream size                              : 27.2 KiB (0%)
  56. Language                                 : English
  57. Default                                  : No
  58. Forced                                   : No
复制代码





                                       
                                       

                                       
                                       
                                       




回复

使用道具 举报

懒得打字嘛,点击右侧快捷回复 【右侧内容,后台自定义】
您需要登录后才可以回帖 登录 | 立即加入

本版积分规则

Archiver|小黑屋| 蓝光电影网 |网站地图

Copyright © 2021 Comsenz Inc. Powered by 蓝光电影网

蓝光电影网

本站内容由用户自主分享和转载自互联网,转载目的在于传递更多信息,并不代表本网赞同其观点和对其真实性负责。

如有侵权、违反国家法律政策行为,请联系我们,我们会第一时间及时清除和处理!

举报反馈邮箱:[email protected]

快速回复 返回顶部 返回列表