找回密码

蓝光电影网

查看: 13|回复: 0

[剧情] 地狱女子 Impetigore.2019.INDONESIAN.ENSUBBED.1080p.AMZN.WEBRip.DDP2.0.x264-NTG 5.04GB

[复制链接]
蓝光币
426
发表于 2021-8-20 00:39:13 | 显示全部楼层 |阅读模式


◎译  名 天堂女子 / Impetigore / 人皮咒(台) / 凶宅契约(港)
◎片  名 Perempuan Tanah Jahanam
◎年  代 2019
◎产  地 印度尼西亚
◎类  别 剧情 / 悬疑 / 可骇
◎语  言 印度尼西亚语
◎上映日期 2019-10-17(印度尼西亚)
◎IMDb评分  7.2/10 from 1058 users
◎IMDb链接  https://www.imdb.com/title/tt9000302
◎豆瓣评分 0/10 from 0 users
◎豆瓣链接 https://movie.douban.com/subject/34800706/
◎导  演 乔可·安华 Joko Anwar
◎编  剧 乔可·安华 Joko Anwar
◎主  演 塔拉·巴斯罗 Tara Basro
       Ario Bayu
       Marissa Anita
       克里斯汀·哈金 Christine Hakim
       阿斯马拉·阿比盖尔 Asmara Abigail
       Kiki Narendra
       Zidni Hakim
       Faradina Mufti
       Abdurrahman Arif
       Muhammad Abe Baasyin
       Mursiyanto
       Ahmad Ramadhan
       Aura Agna
       Sindris Ogiska G.
       Devona Queeny
       Teuku Rifnu Wikana

◎标  签 印尼 | 惊悚 | 可骇 | 2019 | 悬疑 | 剧情 | 可骇惊悚悬疑重口血腥 | 其他地域
◎简  介

  
  一个失意半生的女孩玛雅有天得知自己在乡下本来有间大屋,因而想借着卖屋大赚一笔。但当她与好友阿丁回到这条偏僻的村子时,却发现人烟稀少怪事重重,更浑然不知村民一向在找她,为的就是杀死她来消除肆虐多年的恶咒。在她奋力逃生之际,自己的身世之谜亦渐渐浮面….
  1. Video
  2. ID                                       : 1
  3. Format                                   : AVC
  4. Format/Info                              : Advanced Video Codec
  5. Format profile                           : [email protected]
  6. Format settings                          : CABAC / 4 Ref Frames
  7. Format settings, CABAC                   : Yes
  8. Format settings, Reference frames        : 4 frames
  9. Codec ID                                 : V_MPEG4/ISO/AVC
  10. Duration                                 : 1 h 47 min
  11. Bit rate mode                            : Constant
  12. Bit rate                                 : 6 499 kb/s
  13. Nominal bit rate                         : 10 000 kb/s
  14. Width                                    : 1 920 pixels
  15. Height                                   : 816 pixels
  16. Display aspect ratio                     : 2.35:1
  17. Frame rate mode                          : Constant
  18. Frame rate                               : 24.000 FPS
  19. Color space                              : YUV
  20. Chroma subsampling                       : 4:2:0
  21. Bit depth                                : 8 bits
  22. Scan type                                : Progressive
  23. Bits/(Pixel*Frame)                       : 0.173
  24. Stream size                              : 4.87 GiB (97%)
  25. Default                                  : Yes
  26. Forced                                   : No
  27. Color range                              : Limited
  28. Color primaries                          : BT.709
  29. Transfer characteristics                 : BT.709
  30. Matrix coefficients                      : BT.709
  31. Audio
  32. ID                                       : 2
  33. Format                                   : E-AC-3
  34. Format/Info                              : Enhanced AC-3
  35. Commercial name                          : Dolby Digital Plus
  36. Codec ID                                 : A_EAC3
  37. Duration                                 : 1 h 47 min
  38. Bit rate mode                            : Constant
  39. Bit rate                                 : 224 kb/s
  40. Channel(s)                               : 2 channels
  41. Channel layout                           : L R
  42. Sampling rate                            : 48.0 kHz
  43. Frame rate                               : 31.250 FPS (1536 SPF)
  44. Compression mode                         : Lossy
  45. Stream size                              : 172 MiB (3%)
  46. Language                                 : Indonesian
  47. Service kind                             : Complete Main
  48. Default                                  : Yes
  49. Forced                                   : No
复制代码






                                       
                                       

                                       
                                       
                                       




回复

使用道具 举报

懒得打字嘛,点击右侧快捷回复 【右侧内容,后台自定义】
您需要登录后才可以回帖 登录 | 立即加入

本版积分规则

Archiver|小黑屋| 蓝光电影网 |网站地图

Copyright © 2021 Comsenz Inc. Powered by 蓝光电影网

蓝光电影网

本站内容由用户自主分享和转载自互联网,转载目的在于传递更多信息,并不代表本网赞同其观点和对其真实性负责。

如有侵权、违反国家法律政策行为,请联系我们,我们会第一时间及时清除和处理!

举报反馈邮箱:[email protected]

快速回复 返回顶部 返回列表