找回密码

蓝光电影网

查看: 8|回复: 0

[剧情] 大凶/大凶险 The.Big.Ugly.2020.1080p.WEB-DL.DD5.1.H264-FGT 3.68GB

[复制链接]
蓝光币
382
发表于 2021-8-20 00:39:28 | 显示全部楼层 |阅读模式


◎译  名 大凶 / 大凶恶
◎片  名 The Big Ugly
◎年  代 2020
◎产  地 美国
◎类  别 剧情
◎语  言 英语
◎IMDb链接  https://www.imdb.com/title/tt9441638
◎豆瓣评分 0/10 from 0 users
◎豆瓣链接 https://movie.douban.com/subject/34938666/
◎导  演 斯科特·维普 Scott Wiper
◎编  剧 斯科特·维普 Scott Wiper
◎主  演 朗·普尔曼 Ron Perlman
       马尔科姆·麦克道威尔 Malcolm McDowell
       伊利斯 莱韦斯克 Elyse Levesque
       尼可拉斯·博朗 Nicholas Braun
       莱文·兰宾 Leven Rambin
       维尼·琼斯 Vinnie Jones
       乔丽·卡特 Joelle Carter
       布鲁斯·麦克吉尔 Bruce McGill
       勒诺拉·克里奇洛 Lenora Crichlow
       马克·史姑娘 Mark Rhino Smith

◎简  介

  
  Anglo-American relations go bad when London mob bosses invest in a West Virginia oil deal in hopes of laundering dirty money.
  1. Video
  2. ID                                       : 1
  3. Format                                   : AVC
  4. Format/Info                              : Advanced Video Codec
  5. Format profile                           : [email protected]
  6. Format settings                          : CABAC / 5 Ref Frames
  7. Format settings, CABAC                   : Yes
  8. Format settings, Reference frames        : 5 frames
  9. Codec ID                                 : V_MPEG4/ISO/AVC
  10. Duration                                 : 1 h 46 min
  11. Bit rate                                 : 4 571 kb/s
  12. Width                                    : 1 912 pixels
  13. Height                                   : 792 pixels
  14. Display aspect ratio                     : 2.40:1
  15. Frame rate mode                          : Constant
  16. Frame rate                               : 23.976 (24000/1001/189150) FPS
  17. Color space                              : YUV
  18. Chroma subsampling                       : 4:2:0
  19. Bit depth                                : 8 bits
  20. Scan type                                : Progressive
  21. Bits/(Pixel*Frame)                       : 0.126
  22. Stream size                              : 3.40 GiB (92%)
  23. Title                                    : The.Big.Ugly.2020.1080p.WEB-DL.DD5.1.H264-FGT
  24. Language                                 : English
  25. Default                                  : Yes
  26. Forced                                   : No
  27. Color range                              : Limited
  28. Color primaries                          : BT.709
  29. Transfer characteristics                 : BT.709
  30. Matrix coefficients                      : BT.709
  31. Audio
  32. ID                                       : 2
  33. Format                                   : AC-3
  34. Format/Info                              : Audio Coding 3
  35. Commercial name                          : Dolby Digital
  36. Codec ID                                 : A_AC3
  37. Duration                                 : 1 h 46 min
  38. Bit rate mode                            : Constant
  39. Bit rate                                 : 384 kb/s
  40. Channel(s)                               : 6 channels
  41. Channel layout                           : L R C LFE Ls Rs
  42. Sampling rate                            : 48.0 kHz
  43. Frame rate                               : 31.250 FPS (1536 SPF)
  44. Bit depth                                : 16 bits
  45. Compression mode                         : Lossy
  46. Stream size                              : 292 MiB (8%)
  47. Title                                    : The.Big.Ugly.2020.1080p.WEB-DL.DD5.1.H264-FGT
  48. Language                                 : English
  49. Service kind                             : Complete Main
  50. Default                                  : Yes
  51. Forced                                   : No
  52. Text
  53. ID                                       : 3
  54. Format                                   : UTF-8
  55. Codec ID                                 : S_TEXT/UTF8
  56. Codec ID/Info                            : UTF-8 Plain Text
  57. Duration                                 : 1 h 38 min
  58. Bit rate                                 : 43 b/s
  59. Count of elements                        : 1145
  60. Stream size                              : 31.1 KiB (0%)
  61. Language                                 : English
  62. Default                                  : Yes
  63. Forced                                   : No
  64. Menu
  65. 00:00:00.000                             : en:1
  66. 00:01:08.000                             : en:2
  67. 00:10:53.000                             : en:3
  68. 00:20:18.000                             : en:4
  69. 00:30:04.000                             : en:5
  70. 00:41:26.000                             : en:6
  71. 00:51:12.000                             : en:7
  72. 01:01:04.000                             : en:8
  73. 01:10:51.000                             : en:9
  74. 01:19:42.000                             : en:10
  75. 01:29:52.000                             : en:11
  76. 01:39:58.000                             : en:12
复制代码





                                       
                                       

                                       
                                       
                                       




回复

使用道具 举报

懒得打字嘛,点击右侧快捷回复 【右侧内容,后台自定义】
您需要登录后才可以回帖 登录 | 立即加入

本版积分规则

Archiver|小黑屋| 蓝光电影网 |网站地图

Copyright © 2021 Comsenz Inc. Powered by 蓝光电影网

蓝光电影网

本站内容由用户自主分享和转载自互联网,转载目的在于传递更多信息,并不代表本网赞同其观点和对其真实性负责。

如有侵权、违反国家法律政策行为,请联系我们,我们会第一时间及时清除和处理!

举报反馈邮箱:[email protected]

快速回复 返回顶部 返回列表