找回密码

蓝光电影网

查看: 8|回复: 0

[剧情] 小公主 The.Little.Princess.1939.1080p.AMZN.WEBRip.DDP2.0.x264-alfaHD 3.65GB

[复制链接]
蓝光币
426
发表于 2021-8-20 00:39:34 | 显示全部楼层 |阅读模式


◎译  名 小公主 / La princesita / Petite princesse / 勇敢小公主 / 小孤女
◎片  名 The Little Princess
◎年  代 1939
◎产  地 美国
◎类  别 剧情 / 笑剧 / 歌舞 / 家庭
◎语  言 英语 / 北印度语
◎上映日期 1939-03-10(美国)
◎IMDb评分  7.2/10 from 5469 users
◎IMDb链接  https://www.imdb.com/title/tt0031580
◎豆瓣评分 8.4/10 from 10520 users
◎豆瓣链接 https://movie.douban.com/subject/1292737/
◎片  长 93 分钟(TCM print)
◎导  演 沃尔特·朗 Walter Lang / 威廉·A·塞特尔 William A. Seiter
◎编  剧 Ethel Hill / Frances Hodgson Burnett / 沃尔特·费里斯 Walter Ferris
◎主  演 秀兰·邓波儿 Shirley Temple
       Richard Greene
       安妮塔·露易丝 Anita Louise
       Ian Hunter
       恺撒·罗摩洛 Cesar Romero

◎标  签 秀兰·邓波儿 | 美国 | 典范 | 美国电影 | 儿童 | 小公主 | 笑剧 | ShirleyTemple
◎简  介

  
  故事发生在英国19世纪的维多利亚期间。小仆人公莎拉(秀兰·邓波儿 Shirley Temple饰)诞生在贵族家庭中,但就在她刚诞生的时辰母亲就归天了。父亲克鲁上尉(理查德·格林尼 Richard Greene饰)由于要前往南非作战而把莎拉送到一所女子贵族黉舍寄读。当得知莎拉的贵族身份后,校长把她当做公主一般看待。可就在莎拉生日确当天,火线传来父亲阵亡失落的消息。今后莎拉的际遇就发生了天地之别,校长赶她出本来标致的房间,并把她当做卑贱的小仆人使唤。可是顽强的莎拉并没有放弃希望,她一方面照旧在帮助着他人,一方面处处寻觅着“阵亡”的父亲,她深信父亲是不会离他而去的。终究,奇迹发生了……
  本片改编自天下著名儿童文学作家 F·H·伯内特夫人的典范名作《小公主》。
  1. Video
  2. ID                                       : 1
  3. Format                                   : AVC
  4. Format/Info                              : Advanced Video Codec
  5. Format profile                           : [email protected]
  6. Format settings                          : CABAC / 4 Ref Frames
  7. Format settings, CABAC                   : Yes
  8. Format settings, Reference frames        : 4 frames
  9. Codec ID                                 : V_MPEG4/ISO/AVC
  10. Duration                                 : 1 h 33 min
  11. Bit rate mode                            : Constant
  12. Bit rate                                 : 5 396 kb/s
  13. Nominal bit rate                         : 10 000 kb/s
  14. Width                                    : 1 440 pixels
  15. Height                                   : 1 080 pixels
  16. Display aspect ratio                     : 4:3
  17. Frame rate mode                          : Constant
  18. Frame rate                               : 23.976 (24000/1001/189150) FPS
  19. Color space                              : YUV
  20. Chroma subsampling                       : 4:2:0
  21. Bit depth                                : 8 bits
  22. Scan type                                : Progressive
  23. Bits/(Pixel*Frame)                       : 0.145
  24. Stream size                              : 3.51 GiB (96%)
  25. Default                                  : Yes
  26. Forced                                   : No
  27. Color range                              : Limited
  28. Color primaries                          : BT.709
  29. Transfer characteristics                 : BT.709
  30. Matrix coefficients                      : BT.709
  31. Audio
  32. ID                                       : 2
  33. Format                                   : E-AC-3
  34. Format/Info                              : Enhanced AC-3
  35. Commercial name                          : Dolby Digital Plus
  36. Codec ID                                 : A_EAC3
  37. Duration                                 : 1 h 33 min
  38. Bit rate mode                            : Constant
  39. Bit rate                                 : 224 kb/s
  40. Channel(s)                               : 2 channels
  41. Channel layout                           : L R
  42. Sampling rate                            : 48.0 kHz
  43. Frame rate                               : 31.250 FPS (1536 SPF)
  44. Compression mode                         : Lossy
  45. Stream size                              : 149 MiB (4%)
  46. Language                                 : English
  47. Service kind                             : Complete Main
  48. Default                                  : Yes
  49. Forced                                   : No
  50. Text #1
  51. ID                                       : 3
  52. Format                                   : UTF-8
  53. Codec ID                                 : S_TEXT/UTF8
  54. Codec ID/Info                            : UTF-8 Plain Text
  55. Duration                                 : 1 h 29 min
  56. Bit rate                                 : 75 b/s
  57. Count of elements                        : 952
  58. Stream size                              : 49.2 KiB (0%)
  59. Language                                 : English
  60. Default                                  : No
  61. Forced                                   : No
  62. Text #2
  63. ID                                       : 4
  64. Format                                   : UTF-8
  65. Codec ID                                 : S_TEXT/UTF8
  66. Codec ID/Info                            : UTF-8 Plain Text
  67. Duration                                 : 1 h 29 min
  68. Bit rate                                 : 75 b/s
  69. Count of elements                        : 952
  70. Stream size                              : 49.2 KiB (0%)
  71. Title                                    : SDH
  72. Language                                 : English
  73. Default                                  : No
  74. Forced                                   : No
复制代码






                                       
                                       

                                       
                                       
                                       




回复

使用道具 举报

懒得打字嘛,点击右侧快捷回复 【右侧内容,后台自定义】
您需要登录后才可以回帖 登录 | 立即加入

本版积分规则

Archiver|小黑屋| 蓝光电影网 |网站地图

Copyright © 2021 Comsenz Inc. Powered by 蓝光电影网

蓝光电影网

本站内容由用户自主分享和转载自互联网,转载目的在于传递更多信息,并不代表本网赞同其观点和对其真实性负责。

如有侵权、违反国家法律政策行为,请联系我们,我们会第一时间及时清除和处理!

举报反馈邮箱:[email protected]

快速回复 返回顶部 返回列表