找回密码

蓝光电影网

查看: 4|回复: 0

[剧情] 扬基的骄傲 The.Pride.of.The.Yankees.1942.1080p.AMZN.WEBRip.DDP2.0.x264-alfaHD 9.08GB

[复制链接]
蓝光币
382
发表于 2021-8-20 00:39:38 | 显示全部楼层 |阅读模式


◎译  名 扬基的自豪
◎片  名 The Pride of the Yankees
◎年  代 1942
◎产  地 美国
◎类  别 剧情 / 恋爱 / 家庭 / 列传 / 活动
◎语  言 英语
◎上映日期 1948-12-02
◎IMDb评分  7.7/10 from 9592 users
◎IMDb链接  https://www.imdb.com/title/tt0035211
◎豆瓣评分 7.8/10 from 157 users
◎豆瓣链接 https://movie.douban.com/subject/1296137/
◎片  长 128 分钟
◎导  演 山姆·伍德 Sam Wood
◎编  剧 凯西·罗宾逊 Casey Robinson / 赫尔曼.曼切维兹 Herman J. Mankiewicz / 乔·斯沃林 Jo Swerling
◎主  演 加里·库柏 Gary Cooper
       特雷莎·怀特 Teresa Wright
       Babe Ruth
       沃尔特·布伦南 Walter Brennan
       丹·德亚 Dan Duryea
       Elsa Janssen
       Ludwig St?ssel
       Virginia Gilmore
       Bill Dickey
       Ernie Adams
       皮埃尔·沃特金斯 Pierre Watkin
       哈利·哈维 Harry Harvey
       Bob Meusel
       Mark Koenig
       Bill Stern
       Addison Richards
       Hardie Albright
       George Lessey

◎标  签 美国 | 体育 | 励志 | 列传 | 美国电影 | 棒球 | 1940s | GaryCooper
◎简  介

  
  Gary Cooper plays Lou Gehrig, the first baseman for the Yanks who suffered from a crippling and incurable disease. Even when Gehrig was a student at Columbia University, the press had already pegged him as a top ballplayer. Soon the New York Yankees selected Gehrig for their lineup, and he became an overnight sensation on the baseball diamond. But this dedicated player--who had never missed a game once he stepped onto a Major League Baseball field--suddenly fell ill with a mysterious disease. As his body began to fail him, Gehrig had to say good-bye to the fans who idolized him and to the sport he loved so dearly. The film's final scene is a deeply moving portrait of human courage. Also not to be missed is Babe Ruth’s cameo appearance as himself. Cooper’s performance is outstanding, measuring up to the drama that surrounded the real-life events. THE PRIDE OF THE YANKEEES remains one of the greatest biopics ever filmed, in addition to being perhaps the best sports film of the 20th century.
◎获奖情况  
  第15届奥斯卡金像奖(1943)
  最好影片(提名)
  最好男配角(提名) 加里·库珀
  最好女配角(提名) 特雷莎·怀特
  最好原创故事(提名) 保罗·加利科
  最好编剧(提名) 赫尔曼·曼凯维奇 / 乔·斯沃林
  黑白片最好摄影(提名) 鲁道夫·马泰
  最好剪辑 Daniel Mandell
  最好殊效(提名) Jack Cosgrove / 托马斯·T·莫尔顿 / Ray Binger
  最好录音(提名) 托马斯·T·莫尔顿
  黑白片最好艺术指导和室内布景(提名) Perry Ferguson / 霍华德·布里斯托尔
  剧情/笑剧片最好配乐(提名) 雷·哈林
  1. Video
  2. ID                                       : 1
  3. Format                                   : AVC
  4. Format/Info                              : Advanced Video Codec
  5. Format profile                           : [email protected]
  6. Format settings                          : CABAC / 4 Ref Frames
  7. Format settings, CABAC                   : Yes
  8. Format settings, Reference frames        : 4 frames
  9. Codec ID                                 : V_MPEG4/ISO/AVC
  10. Duration                                 : 2 h 8 min
  11. Bit rate mode                            : Constant
  12. Bit rate                                 : 10 000 kb/s
  13. Width                                    : 1 920 pixels
  14. Height                                   : 1 080 pixels
  15. Display aspect ratio                     : 16:9
  16. Frame rate mode                          : Constant
  17. Frame rate                               : 23.976 (24000/1001/189150) FPS
  18. Color space                              : YUV
  19. Chroma subsampling                       : 4:2:0
  20. Bit depth                                : 8 bits
  21. Scan type                                : Progressive
  22. Bits/(Pixel*Frame)                       : 0.201
  23. Stream size                              : 8.88 GiB (98%)
  24. Default                                  : Yes
  25. Forced                                   : No
  26. Color range                              : Limited
  27. Color primaries                          : BT.709
  28. Transfer characteristics                 : BT.709
  29. Matrix coefficients                      : BT.709
  30. Audio
  31. ID                                       : 2
  32. Format                                   : E-AC-3
  33. Format/Info                              : Enhanced AC-3
  34. Commercial name                          : Dolby Digital Plus
  35. Codec ID                                 : A_EAC3
  36. Duration                                 : 2 h 8 min
  37. Bit rate mode                            : Constant
  38. Bit rate                                 : 224 kb/s
  39. Channel(s)                               : 2 channels
  40. Channel layout                           : L R
  41. Sampling rate                            : 48.0 kHz
  42. Frame rate                               : 31.250 FPS (1536 SPF)
  43. Compression mode                         : Lossy
  44. Stream size                              : 206 MiB (2%)
  45. Language                                 : English
  46. Service kind                             : Complete Main
  47. Default                                  : Yes
  48. Forced                                   : No
  49. Text #1
  50. ID                                       : 3
  51. Format                                   : UTF-8
  52. Codec ID                                 : S_TEXT/UTF8
  53. Codec ID/Info                            : UTF-8 Plain Text
  54. Duration                                 : 2 h 3 min
  55. Bit rate                                 : 61 b/s
  56. Count of elements                        : 2063
  57. Stream size                              : 56.0 KiB (0%)
  58. Language                                 : English
  59. Default                                  : No
  60. Forced                                   : No
  61. Text #2
  62. ID                                       : 4
  63. Format                                   : UTF-8
  64. Codec ID                                 : S_TEXT/UTF8
  65. Codec ID/Info                            : UTF-8 Plain Text
  66. Duration                                 : 2 h 7 min
  67. Bit rate                                 : 60 b/s
  68. Count of elements                        : 2088
  69. Stream size                              : 56.3 KiB (0%)
  70. Title                                    : SDH
  71. Language                                 : English
  72. Default                                  : No
  73. Forced                                   : No
复制代码






                                       
                                       

                                       
                                       
                                       




回复

使用道具 举报

懒得打字嘛,点击右侧快捷回复 【右侧内容,后台自定义】
您需要登录后才可以回帖 登录 | 立即加入

本版积分规则

Archiver|小黑屋| 蓝光电影网 |网站地图

Copyright © 2021 Comsenz Inc. Powered by 蓝光电影网

蓝光电影网

本站内容由用户自主分享和转载自互联网,转载目的在于传递更多信息,并不代表本网赞同其观点和对其真实性负责。

如有侵权、违反国家法律政策行为,请联系我们,我们会第一时间及时清除和处理!

举报反馈邮箱:[email protected]

快速回复 返回顶部 返回列表