找回密码

蓝光电影网

查看: 10|回复: 0

[剧情] 恶毒一族 The.Vicious.Kind.2009.1080p.AMZN.WEBRip.DDP5.1.x264-alfaHD 6.67GB

[复制链接]
蓝光币
426
发表于 2021-8-20 00:39:47 | 显示全部楼层 |阅读模式


◎译  名 恶毒一族
◎片  名 The Vicious Kind
◎年  代 2009
◎产  地 美国
◎类  别 剧情 / 笑剧
◎语  言 英语
◎上映日期 2009-01-17
◎IMDb评分  7.0/10 from 7396 users
◎IMDb链接  https://www.imdb.com/title/tt1183921
◎豆瓣评分 6.3/10 from 58 users
◎豆瓣链接 https://movie.douban.com/subject/3072153/
◎片  长 USA: 92 分钟
◎导  演 李·杜兰·克里格 Lee Toland Krieger
◎编  剧 Lee Toland Krieger
◎主  演 Brittany Snow
       J.K. Simmons
       Adam Scott

◎标  签 美国 | 我看过的电影 | 我看过的英语电影 | 自力 | 2009 | 英语电影 | 美国电影 | 看电影
◎简  介

  
  A man tries to warn his brother away from the new girlfriend he brings home during Thanksgiving, but ends up becoming infatuated with her in the process
  1. Video
  2. ID                                       : 1
  3. Format                                   : AVC
  4. Format/Info                              : Advanced Video Codec
  5. Format profile                           : [email protected]
  6. Format settings                          : CABAC / 4 Ref Frames
  7. Format settings, CABAC                   : Yes
  8. Format settings, Reference frames        : 4 frames
  9. Codec ID                                 : V_MPEG4/ISO/AVC
  10. Duration                                 : 1 h 31 min
  11. Bit rate mode                            : Constant
  12. Bit rate                                 : 10 000 kb/s
  13. Width                                    : 1 920 pixels
  14. Height                                   : 816 pixels
  15. Display aspect ratio                     : 2.35:1
  16. Frame rate mode                          : Constant
  17. Frame rate                               : 23.976 (24000/1001/189150) FPS
  18. Color space                              : YUV
  19. Chroma subsampling                       : 4:2:0
  20. Bit depth                                : 8 bits
  21. Scan type                                : Progressive
  22. Bits/(Pixel*Frame)                       : 0.266
  23. Stream size                              : 6.26 GiB (94%)
  24. Language                                 : English
  25. Default                                  : Yes
  26. Forced                                   : No
  27. Color range                              : Limited
  28. Color primaries                          : BT.709
  29. Transfer characteristics                 : BT.709
  30. Matrix coefficients                      : BT.709
  31. Audio
  32. ID                                       : 2
  33. Format                                   : E-AC-3
  34. Format/Info                              : Enhanced AC-3
  35. Commercial name                          : Dolby Digital Plus
  36. Codec ID                                 : A_EAC3
  37. Duration                                 : 1 h 31 min
  38. Bit rate mode                            : Constant
  39. Bit rate                                 : 640 kb/s
  40. Channel(s)                               : 6 channels
  41. Channel layout                           : L R C LFE Ls Rs
  42. Sampling rate                            : 48.0 kHz
  43. Frame rate                               : 31.250 FPS (1536 SPF)
  44. Compression mode                         : Lossy
  45. Stream size                              : 420 MiB (6%)
  46. Language                                 : English
  47. Service kind                             : Complete Main
  48. Default                                  : Yes
  49. Forced                                   : No
  50. Text #1
  51. ID                                       : 3
  52. Format                                   : UTF-8
  53. Codec ID                                 : S_TEXT/UTF8
  54. Codec ID/Info                            : UTF-8 Plain Text
  55. Duration                                 : 1 h 30 min
  56. Bit rate                                 : 55 b/s
  57. Count of elements                        : 1265
  58. Stream size                              : 37.1 KiB (0%)
  59. Language                                 : English
  60. Default                                  : No
  61. Forced                                   : No
  62. Text #2
  63. ID                                       : 4
  64. Format                                   : UTF-8
  65. Codec ID                                 : S_TEXT/UTF8
  66. Codec ID/Info                            : UTF-8 Plain Text
  67. Duration                                 : 1 h 31 min
  68. Bit rate                                 : 57 b/s
  69. Count of elements                        : 1361
  70. Stream size                              : 38.4 KiB (0%)
  71. Title                                    : SDH
  72. Language                                 : English
  73. Default                                  : No
  74. Forced                                   : No
  75. Menu
  76. 00:00:00.000                             : en:Studio Logos
  77. 00:00:11.000                             : en:Caleb warns Peter to stay away from girls & inquires about his present girlfriend, restaurant
  78. 00:05:02.000                             : en:Opening Credits
  79. 00:06:37.000                             : en:Caleb acts hostile while greeting Emma, Emma\'s house & car
  80. 00:09:08.000                             : en:Caleb refuses to join Peter & Emma for Thanksgiving, car
  81. 00:11:41.000                             : en:Caleb drops Peter & Emma off at home, car
  82. 00:14:05.000                             : en:Donald praises Emma much to Peter\'s annoyance, Donald\'s house
  83. 00:16:28.000                             : en:Emma smokes slyly
  84. 00:18:19.000                             : en:Caleb drops off photos at Hannah\'s door, Hannah\'s house
  85. 00:19:29.000                             : en:Caleb ends the conversation initiated by J.T., under construction house
  86. 00:20:42.000                             : en:Peter refuses to take Donald\'s legendary ball with him, Donald\'s house
  87. 00:22:01.000                             : en:Caleb watches Emma & Peter at the bowling alley, bowling alley
  88. 00:23:23.000                             : en:Emma & Caleb share a conversation, bowling alley
  89. 00:26:11.000                             : en:Rocky demands that Peter come over to his place for dinner, under construction house
  90. 00:27:39.000                             : en:Caleb warns Emma to stay faithful to his brother, Grocery shop
  91. 00:30:57.000                             : en:Caleb begs Emma for forgiveness, street
  92. 00:32:52.000                             : en:Emma is unable to let go of Caleb\'s words, Donald\'s house
  93. 00:34:13.000                             : en:Emma catches Caleb sneaking into Donald\'s house, Donald\'s house
  94. 00:38:04.000                             : en:Emma asks Donald to tell her about Peter\'s mother, road
  95. 00:40:36.000                             : en:Caleb talks to J.T. about Donald, under construction building
  96. 00:42:41.000                             : en:Donald almost accidentally shoots Caleb, Donald\'s house
  97. 00:44:54.000                             : en:Caleb denies his feelings for Emma, restaurant
  98. 00:48:02.000                             : en:Peter confesses his feelings for Emma to Caleb, Caleb\'s car
  99. 00:51:57.000                             : en:Peter tells Emma the truth about his mother & they get intimate, Peter\'s room
  100. 00:53:45.000                             : en:Caleb is confused about his feelings for Emma, Samantha\'s room
  101. 00:55:19.000                             : en:Caleb parks his car outside Donald\'s house & falls asleep, car & Donald\'s house
  102. 00:57:07.000                             : en:Caleb apologizes to Emma for his behavior, Donald\'s house
  103. 01:01:04.000                             : en:Emma fantasizes about Caleb, Donald\'s house
  104. 01:02:31.000                             : en:Caleb takes the day off, under construction area & club
  105. 01:05:33.000                             : en:Caleb shares his feelings for Emma, ground
  106. 01:07:29.000                             : en:Emma feels unsatisfied with her & Peter\'s sex life, Peter\'s room
  107. 01:08:28.000                             : en:Caleb & Emma get intimate, Peter\'s room
  108. 01:13:22.000                             : en:Emma learns more about Caleb\'s parents, Donald\'s house
  109. 01:18:10.000                             : en:Caleb accuses Donald of abandoning him, Donald\'s house
  110. 01:21:04.000                             : en:Caleb asks Donald to hide the incident from Peter, Donald\'s room
  111. 01:22:29.000                             : en:Donald attempts to mend his relationship with Peter, car & train station
  112. 01:26:07.000                             : en:Peter confesses his feelings to Emma, train & Caleb\'s work place
  113. 01:27:24.000                             : en:Caleb & Donald try to improve their relationship by giving it a new start, Donald\'s house
  114. 01:28:16.000                             : en:End Credits
复制代码





                                       
                                       

                                       
                                       
                                       




回复

使用道具 举报

懒得打字嘛,点击右侧快捷回复 【右侧内容,后台自定义】
您需要登录后才可以回帖 登录 | 立即加入

本版积分规则

Archiver|小黑屋| 蓝光电影网 |网站地图

Copyright © 2021 Comsenz Inc. Powered by 蓝光电影网

蓝光电影网

本站内容由用户自主分享和转载自互联网,转载目的在于传递更多信息,并不代表本网赞同其观点和对其真实性负责。

如有侵权、违反国家法律政策行为,请联系我们,我们会第一时间及时清除和处理!

举报反馈邮箱:[email protected]

快速回复 返回顶部 返回列表