找回密码

蓝光电影网

查看: 9|回复: 0

[剧情] 出水芙蓉 Million.Dollar.Mermaid.1952.1080p.HMAX.WEBRip.DD2.0.x264-QOQ 6.60GB

[复制链接]
蓝光币
382
发表于 2021-8-20 00:40:26 | 显示全部楼层 |阅读模式


◎译  名 出水芙蓉
◎片  名 Million Dollar Mermaid
◎年  代 1952
◎产  地 美国
◎类  别 剧情 / 歌舞 / 列传
◎语  言 英语
◎上映日期 1952-12-04(美国)
◎IMDb评分  6.6/10 from 1223 users
◎IMDb链接  https://www.imdb.com/title/tt0044903
◎豆瓣评分 8.4/10 from 3591 users
◎豆瓣链接 https://movie.douban.com/subject/1767709/
◎片  长 115分钟
◎导  演 Mervyn LeRoy
◎编  剧 Everett Freeman
◎主  演 Esther Williams
       Victor Mature
       Walter Pidgeon

◎标  签 美国 | 歌舞 | 笑剧 | 恋爱 | 1952 | 音乐 | 老片 | 励志
◎简  介

  
  本片按照真人真事改编,开创了歌舞片全新的表演艺术形式——花样泅水。女仆人公安妮·凯勒(埃丝特·威廉斯 Esther Williams饰)是一位普通音乐教师的女儿。本想用泅水来治疗从小得了的腿病,没想到练就了一身泅水特技。由于父亲调任工作的关系,安妮随父亲前往伦敦。在船上碰到了江湖卖艺的詹姆斯·苏利文(维克多·迈彻 Victor Mature饰)。他想操纵安妮穿着泳装的表演来宣传造势,不意却使安妮意外的成为了媒体焦点,名声大噪。随后安妮的水上芭蕾舞表演就一发不成整理,颤动一时。
  本片荣获1953年奥斯卡(美国电影学院奖)最好摄影(彩色片)提名。
◎获奖情况  
  第25届奥斯卡金像奖(1953)
  彩色片最好摄影(提名) 乔治·J·福尔西
  1. Video
  2. ID                                       : 1
  3. Format                                   : AVC
  4. Format/Info                              : Advanced Video Codec
  5. Format profile                           : [email protected]
  6. Format settings                          : CABAC / 4 Ref Frames
  7. Format settings, CABAC                   : Yes
  8. Format settings, Reference frames        : 4 frames
  9. Codec ID                                 : V_MPEG4/ISO/AVC
  10. Duration                                 : 1 h 49 min
  11. Bit rate mode                            : Variable
  12. Bit rate                                 : 8 217 kb/s
  13. Maximum bit rate                         : 12.4 Mb/s
  14. Width                                    : 1 920 pixels
  15. Height                                   : 1 080 pixels
  16. Display aspect ratio                     : 16:9
  17. Frame rate mode                          : Constant
  18. Frame rate                               : 23.976 (24000/1001/189150) FPS
  19. Color space                              : YUV
  20. Chroma subsampling                       : 4:2:0
  21. Bit depth                                : 8 bits
  22. Scan type                                : Progressive
  23. Bits/(Pixel*Frame)                       : 0.165
  24. Stream size                              : 6.31 GiB (96%)
  25. Default                                  : Yes
  26. Forced                                   : No
  27. Audio
  28. ID                                       : 2
  29. Format                                   : AC-3
  30. Format/Info                              : Audio Coding 3
  31. Commercial name                          : Dolby Digital
  32. Codec ID                                 : A_AC3
  33. Duration                                 : 1 h 49 min
  34. Bit rate mode                            : Constant
  35. Bit rate                                 : 384 kb/s
  36. Channel(s)                               : 2 channels
  37. Channel layout                           : L R
  38. Sampling rate                            : 48.0 kHz
  39. Frame rate                               : 31.250 FPS (1536 SPF)
  40. Bit depth                                : 16 bits
  41. Compression mode                         : Lossy
  42. Stream size                              : 302 MiB (4%)
  43. Language                                 : English
  44. Service kind                             : Complete Main
  45. Default                                  : Yes
  46. Forced                                   : No
  47. Text
  48. ID                                       : 3
  49. Format                                   : UTF-8
  50. Codec ID                                 : S_TEXT/UTF8
  51. Codec ID/Info                            : UTF-8 Plain Text
  52. Duration                                 : 1 h 49 min
  53. Bit rate                                 : 74 b/s
  54. Count of elements                        : 1902
  55. Stream size                              : 60.0 KiB (0%)
  56. Title                                    : English CC
  57. Language                                 : English
  58. Default                                  : No
  59. Forced                                   : No
复制代码






                                       
                                       

                                       
                                       
                                       




回复

使用道具 举报

懒得打字嘛,点击右侧快捷回复 【右侧内容,后台自定义】
您需要登录后才可以回帖 登录 | 立即加入

本版积分规则

Archiver|小黑屋| 蓝光电影网 |网站地图

Copyright © 2021 Comsenz Inc. Powered by 蓝光电影网

蓝光电影网

本站内容由用户自主分享和转载自互联网,转载目的在于传递更多信息,并不代表本网赞同其观点和对其真实性负责。

如有侵权、违反国家法律政策行为,请联系我们,我们会第一时间及时清除和处理!

举报反馈邮箱:[email protected]

快速回复 返回顶部 返回列表