找回密码

蓝光电影网

查看: 6|回复: 0

[剧情] 孤女梦痕/霍莉的图画 Pictures.of.Hollis.Woods.2007.1080p.AMZN.WEBRip.DDP2.0.x264-alfaHD 6.20GB

[复制链接]
蓝光币
382
发表于 2021-8-20 00:40:29 | 显示全部楼层 |阅读模式


◎译  名 孤女梦痕 / 霍莉的图画
◎片  名 Pictures of Hollis Woods
◎年  代 2007
◎产  地 美国
◎类  别 剧情
◎语  言 英语
◎上映日期 2007-12-02
◎IMDb评分  7.4/10 from 891 users
◎IMDb链接  https://www.imdb.com/title/tt1057512
◎豆瓣评分 7.9/10 from 111 users
◎豆瓣链接 https://movie.douban.com/subject/2350915/
◎导  演 Tony Bill
◎编  剧 Ann Peacock
◎主  演 Alfre Woodard
       Sissy Spacek
       Jodelle Ferland
       Ridge Canipe
       Eric Crump

◎标  签 美国 | 温情 | 美国电影 | 感动 | jodelle | 剧情 | 2007 | 人生探讨
◎简  介

  
  12岁的女孩霍莉从收养自己的瑞根家中出走后,被一个名叫乔西的女人重新收养了。乔西是一个布满爱心的退休教师,原本是教授艺术的。霍莉在她的帮助下,经过图画来显现自己心里的感情。在画中,她表达了自己想要一个家的愿望。尔后乔西对霍莉很是爱惜。但是随着乔西的忘记症日益严重,两人交换脚色,霍莉成了阿谁照顾人的人。也就在两人相依为命的日子中,霍莉真正体味到了家庭的寄义。
◎获奖情况  
  第65届金球奖(2008)
  电视类 限制剧/电视电影最好女配角(提名) 茜茜·斯派塞克
  1. Video
  2. ID                                       : 1
  3. Format                                   : AVC
  4. Format/Info                              : Advanced Video Codec
  5. Format profile                           : [email protected]
  6. Format settings                          : CABAC / 4 Ref Frames
  7. Format settings, CABAC                   : Yes
  8. Format settings, Reference frames        : 4 frames
  9. Codec ID                                 : V_MPEG4/ISO/AVC
  10. Duration                                 : 1 h 35 min
  11. Bit rate mode                            : Constant
  12. Bit rate                                 : 9 055 kb/s
  13. Nominal bit rate                         : 10 000 kb/s
  14. Width                                    : 1 920 pixels
  15. Height                                   : 1 080 pixels
  16. Display aspect ratio                     : 16:9
  17. Frame rate mode                          : Constant
  18. Frame rate                               : 23.976 (24000/1001/189150) FPS
  19. Color space                              : YUV
  20. Chroma subsampling                       : 4:2:0
  21. Bit depth                                : 8 bits
  22. Scan type                                : Progressive
  23. Bits/(Pixel*Frame)                       : 0.182
  24. Stream size                              : 6.05 GiB (98%)
  25. Default                                  : Yes
  26. Forced                                   : No
  27. Color range                              : Limited
  28. Color primaries                          : BT.709
  29. Transfer characteristics                 : BT.709
  30. Matrix coefficients                      : BT.709
  31. Audio
  32. ID                                       : 2
  33. Format                                   : E-AC-3
  34. Format/Info                              : Enhanced AC-3
  35. Commercial name                          : Dolby Digital Plus
  36. Codec ID                                 : A_EAC3
  37. Duration                                 : 1 h 35 min
  38. Bit rate mode                            : Constant
  39. Bit rate                                 : 224 kb/s
  40. Channel(s)                               : 2 channels
  41. Channel layout                           : L R
  42. Sampling rate                            : 48.0 kHz
  43. Frame rate                               : 31.250 FPS (1536 SPF)
  44. Compression mode                         : Lossy
  45. Stream size                              : 153 MiB (2%)
  46. Language                                 : English
  47. Service kind                             : Complete Main
  48. Default                                  : Yes
  49. Forced                                   : No
  50. Text #1
  51. ID                                       : 3
  52. Format                                   : UTF-8
  53. Codec ID                                 : S_TEXT/UTF8
  54. Codec ID/Info                            : UTF-8 Plain Text
  55. Duration                                 : 1 h 34 min
  56. Bit rate                                 : 52 b/s
  57. Count of elements                        : 1485
  58. Stream size                              : 36.0 KiB (0%)
  59. Language                                 : English
  60. Default                                  : No
  61. Forced                                   : No
  62. Text #2
  63. ID                                       : 4
  64. Format                                   : UTF-8
  65. Codec ID                                 : S_TEXT/UTF8
  66. Codec ID/Info                            : UTF-8 Plain Text
  67. Duration                                 : 1 h 34 min
  68. Bit rate                                 : 52 b/s
  69. Count of elements                        : 1492
  70. Stream size                              : 36.0 KiB (0%)
  71. Title                                    : SDH
  72. Language                                 : English
  73. Default                                  : No
  74. Forced                                   : No
复制代码






                                       
                                       

                                       
                                       
                                       




回复

使用道具 举报

懒得打字嘛,点击右侧快捷回复 【右侧内容,后台自定义】
您需要登录后才可以回帖 登录 | 立即加入

本版积分规则

Archiver|小黑屋| 蓝光电影网 |网站地图

Copyright © 2021 Comsenz Inc. Powered by 蓝光电影网

蓝光电影网

本站内容由用户自主分享和转载自互联网,转载目的在于传递更多信息,并不代表本网赞同其观点和对其真实性负责。

如有侵权、违反国家法律政策行为,请联系我们,我们会第一时间及时清除和处理!

举报反馈邮箱:[email protected]

快速回复 返回顶部 返回列表