找回密码

蓝光电影网

查看: 11|回复: 0

[剧情] 快乐诗人/快樂詩人的有機食譜 The.Happy.Poet.2010.1080p.AMZN.WEBRip.DDP2.0.x264-iKA 4.66GB

[复制链接]
蓝光币
426
发表于 2021-8-20 00:40:39 | 显示全部楼层 |阅读模式


◎译  名 欢畅墨客 / 快樂詩人的有機食譜 (台)
◎片  名 The Happy Poet
◎年  代 2010
◎产  地 美国
◎类  别 剧情 / 笑剧 / 恋爱
◎语  言 英语
◎上映日期 2010
◎IMDb评分  6.2/10 from 228 users
◎IMDb链接  https://www.imdb.com/title/tt1605765
◎豆瓣评分 0/10 from 0 users
◎豆瓣链接 https://movie.douban.com/subject/5155809/
◎片  长 USA: 85 分钟
◎导  演 Paul Gordon
◎编  剧 Paul Gordon
◎主  演 Paul Gordon
       乔尼·马尔斯 Jonny Mars
       克里斯·杜贝克 Chris Doubek

◎标  签 美国 | 笑剧
◎简  介

  
  這是一部關於熱血青年比爾的有機喜劇,為了提倡環保有機食品的理念,他決定從本身作起!銀行戶頭只剩下三萬塊不到的他,創業貸款備受考驗,他租了一台傳統式的熱狗餐車,開始在公園四周經營健康的有機素食品,推出一連串快樂詩人的私房菜單。沒有肉的素食熱狗,沒有蛋的蛋沙拉,縱使朋友們都認為他的行為簡直是瘋了,原本擔心他是以債台高築,最後又為他能夠堅持自己的理念而感動,紛紛加入輕食攤的行列支持他…快樂詩人比爾,能不能以一己之力,挑戰美國既有體制,喚醒年輕一輩的社會意識,關心我們天天吃的食品呢?
  1. Video
  2. ID                                       : 1
  3. Format                                   : AVC
  4. Format/Info                              : Advanced Video Codec
  5. Format profile                           : [email protected]
  6. Format settings                          : CABAC / 4 Ref Frames
  7. Format settings, CABAC                   : Yes
  8. Format settings, Reference frames        : 4 frames
  9. Codec ID                                 : V_MPEG4/ISO/AVC
  10. Duration                                 : 1 h 24 min
  11. Bit rate mode                            : Constant
  12. Bit rate                                 : 7 622 kb/s
  13. Nominal bit rate                         : 10 000 kb/s
  14. Width                                    : 1 920 pixels
  15. Height                                   : 1 080 pixels
  16. Display aspect ratio                     : 16:9
  17. Frame rate mode                          : Constant
  18. Frame rate                               : 23.976 (24000/1001/189150) FPS
  19. Color space                              : YUV
  20. Chroma subsampling                       : 4:2:0
  21. Bit depth                                : 8 bits
  22. Scan type                                : Progressive
  23. Bits/(Pixel*Frame)                       : 0.153
  24. Stream size                              : 4.52 GiB (97%)
  25. Default                                  : Yes
  26. Forced                                   : No
  27. Color range                              : Limited
  28. Color primaries                          : BT.709
  29. Transfer characteristics                 : BT.709
  30. Matrix coefficients                      : BT.709
  31. Audio
  32. ID                                       : 2
  33. Format                                   : E-AC-3
  34. Format/Info                              : Enhanced AC-3
  35. Commercial name                          : Dolby Digital Plus
  36. Codec ID                                 : A_EAC3
  37. Duration                                 : 1 h 24 min
  38. Bit rate mode                            : Constant
  39. Bit rate                                 : 224 kb/s
  40. Channel(s)                               : 2 channels
  41. Channel layout                           : L R
  42. Sampling rate                            : 48.0 kHz
  43. Frame rate                               : 31.250 FPS (1536 SPF)
  44. Compression mode                         : Lossy
  45. Stream size                              : 136 MiB (3%)
  46. Language                                 : English
  47. Service kind                             : Complete Main
  48. Default                                  : Yes
  49. Forced                                   : No
  50. Text
  51. ID                                       : 3
  52. Format                                   : UTF-8
  53. Codec ID                                 : S_TEXT/UTF8
  54. Codec ID/Info                            : UTF-8 Plain Text
  55. Duration                                 : 1 h 22 min
  56. Bit rate                                 : 73 b/s
  57. Count of elements                        : 1619
  58. Stream size                              : 44.7 KiB (0%)
  59. Title                                    : SDH
  60. Language                                 : English
  61. Default                                  : No
  62. Forced                                   : No
复制代码






                                       
                                       

                                       
                                       
                                       




回复

使用道具 举报

懒得打字嘛,点击右侧快捷回复 【右侧内容,后台自定义】
您需要登录后才可以回帖 登录 | 立即加入

本版积分规则

Archiver|小黑屋| 蓝光电影网 |网站地图

Copyright © 2021 Comsenz Inc. Powered by 蓝光电影网

蓝光电影网

本站内容由用户自主分享和转载自互联网,转载目的在于传递更多信息,并不代表本网赞同其观点和对其真实性负责。

如有侵权、违反国家法律政策行为,请联系我们,我们会第一时间及时清除和处理!

举报反馈邮箱:[email protected]

快速回复 返回顶部 返回列表