找回密码

蓝光电影网

查看: 5|回复: 0

[剧情] 杰克和吉尔对抗世界/情定曼哈顿 Jack.and.Jill.vs.The.World.2008.1080p.AMZN.WEBRip.DDP2.0.x264-NOGRP 7.30GB

[复制链接]
蓝光币
382
发表于 2021-8-20 00:41:07 | 显示全部楼层 |阅读模式


◎译  名 杰克和吉尔匹敌天下 / 情定曼哈顿(台)
◎片  名 Jack and Jill vs. the World
◎年  代 2008
◎产  地 美国 / 加拿大
◎类  别 剧情 / 笑剧 / 恋爱
◎语  言 英语
◎上映日期 2008-02-12
◎IMDb评分  5.5/10 from 2843 users
◎IMDb链接  https://www.imdb.com/title/tt0475252
◎豆瓣评分 6.0/10 from 995 users
◎豆瓣链接 https://movie.douban.com/subject/1891196/
◎片  长 Argentina: 90 分钟
◎导  演 Vanessa Parise
◎编  剧 Vanessa Parise / Peter Stebbings
◎主  演 Freddie Prinze Jr.
       Taryn Manning
       Vanessa Parise

◎标  签 恋爱 | 美国 | 美国电影 | 我看过的电影 | 加拿大 | 我看过的英语电影 | Skin | 2008
◎简  介

  
  故事发生在毂击肩摩络绎不绝的大都会纽约,杰克(小弗雷迪·普林兹 Freddie Prinze Jr. 饰)是生活在那边的一位广告人,光芒的工作和生活背后,是他日复一日支出的辛劳汗水。吉尔(塔恩·曼宁 Taryn Manning 饰)初来乍到,一切都像无根浮萍,但是,表面甜蜜心里纯真的她却果断的相信自己可以在这里闯出一番六合,甚至碰到一段豪情。
  就是这样一对本性和际遇都截然分歧的男女,他们走到了一路,相互之间的庞大差别反而让他们相互吸引,终极两人成为了同居室友,签定了“同居条目”。但是,随着时候的推移,杰克却起头越发在意起吉尔的一举一动起来,他感觉行迹诡异的吉尔一定有什么奥秘瞒着自己。
  1. Video
  2. ID                                       : 1
  3. Format                                   : AVC
  4. Format/Info                              : Advanced Video Codec
  5. Format profile                           : [email protected]
  6. Format settings                          : CABAC / 4 Ref Frames
  7. Format settings, CABAC                   : Yes
  8. Format settings, Reference frames        : 4 frames
  9. Codec ID                                 : V_MPEG4/ISO/AVC
  10. Duration                                 : 1 h 27 min
  11. Bit rate                                 : 11.7 Mb/s
  12. Width                                    : 1 920 pixels
  13. Height                                   : 1 080 pixels
  14. Display aspect ratio                     : 16:9
  15. Frame rate mode                          : Constant
  16. Frame rate                               : 23.976 (24000/1001/189150) FPS
  17. Color space                              : YUV
  18. Chroma subsampling                       : 4:2:0
  19. Bit depth                                : 8 bits
  20. Scan type                                : Progressive
  21. Bits/(Pixel*Frame)                       : 0.236
  22. Stream size                              : 7.16 GiB (98%)
  23. Language                                 : English
  24. Default                                  : Yes
  25. Forced                                   : No
  26. Color range                              : Limited
  27. Color primaries                          : BT.709
  28. Transfer characteristics                 : BT.709
  29. Matrix coefficients                      : BT.709
  30. Audio
  31. ID                                       : 2
  32. Format                                   : E-AC-3
  33. Format/Info                              : Enhanced AC-3
  34. Commercial name                          : Dolby Digital Plus
  35. Codec ID                                 : A_EAC3
  36. Duration                                 : 1 h 27 min
  37. Bit rate mode                            : Constant
  38. Bit rate                                 : 224 kb/s
  39. Channel(s)                               : 2 channels
  40. Channel layout                           : L R
  41. Sampling rate                            : 48.0 kHz
  42. Frame rate                               : 31.250 FPS (1536 SPF)
  43. Compression mode                         : Lossy
  44. Stream size                              : 140 MiB (2%)
  45. Title                                    : English
  46. Language                                 : English
  47. Service kind                             : Complete Main
  48. Default                                  : Yes
  49. Forced                                   : No
  50. Menu
  51. 00:00:00.066                             : en:Chapter 01
  52. 00:08:28.074                             : en:Chapter 02
  53. 00:13:51.897                             : en:Chapter 03
  54. 00:21:42.367                             : en:Chapter 04
  55. 00:29:28.333                             : en:Chapter 05
  56. 00:37:54.839                             : en:Chapter 06
  57. 00:43:16.160                             : en:Chapter 07
  58. 00:50:53.116                             : en:Chapter 08
  59. 00:59:01.104                             : en:Chapter 09
  60. 01:05:52.014                             : en:Chapter 10
  61. 01:11:08.330                             : en:Chapter 11
  62. 01:19:33.335                             : en:Chapter 12
  63. 01:27:39.754                             : en:Chapter 13
复制代码






                                       
                                       

                                       
                                       
                                       




回复

使用道具 举报

懒得打字嘛,点击右侧快捷回复 【右侧内容,后台自定义】
您需要登录后才可以回帖 登录 | 立即加入

本版积分规则

Archiver|小黑屋| 蓝光电影网 |网站地图

Copyright © 2021 Comsenz Inc. Powered by 蓝光电影网

蓝光电影网

本站内容由用户自主分享和转载自互联网,转载目的在于传递更多信息,并不代表本网赞同其观点和对其真实性负责。

如有侵权、违反国家法律政策行为,请联系我们,我们会第一时间及时清除和处理!

举报反馈邮箱:[email protected]

快速回复 返回顶部 返回列表