找回密码

蓝光电影网

查看: 13|回复: 0

[剧情] 妈妈不在家 The.Wolves.2019.SPANISH.1080p.HMAX.WEBRip.DD2.0.x264-alfaHD 5.72GB

[复制链接]
蓝光币
426
发表于 2021-8-20 00:41:16 | 显示全部楼层 |阅读模式


◎译  名 妈妈不在家 / The Wolves / 饿狼来了
◎片  名 Los Lobos
◎年  代 2019
◎产  地 墨西哥 / 美国
◎类  别 剧情 / 儿童
◎语  言 西班牙语 / 英语 / 粤语
◎上映日期 2019-10-09(釜山电影节)
◎IMDb评分  6.7/10 from 164 users
◎IMDb链接  https://www.imdb.com/title/tt9057808
◎豆瓣评分 7.1/10 from 93 users
◎豆瓣链接 https://movie.douban.com/subject/34816915/
◎片  长 94分钟
◎导  演 Samuel KISHI LEOPO
◎编  剧 Samuel KISHI LEOPO / Luis Briones / Sofía Gómez-Córdova
◎主  演 玛莎·雷耶斯·阿里娅斯 Martha Reyes Arias
       马克西米利亚诺·纳贾·马奎兹 Maximiliano Nájar Márquez
       莱昂纳多·纳贾·马奎兹 Leonardo Nájar Márquez
       刘慈慈 Cici Lau
       Johnson T. Lau
       Kevin Medina
       Josiah Grado
       Marvin Ramírez
       Alejandro Banteah
       Edwin Ramírez
       Aylin Payen
       Shacty Díaz
       María Teresa Herrera
       Amy Puente
       Celine R. Lopez

◎标  签 墨西哥 | 2019 | 儿童 | 剧情 | 移民群体 | P-BerlinF新生代单元 | HIIFF | 墨西哥风暴
◎简  介

  
  马克斯和里奥跟从母亲露西亚从故乡墨西哥移居到美国。她说他们会过上更好的生活,她还答应带他们去求之不得的迪斯尼乐园。现实的情况却是,孩子们天天被关在一个陈旧狭窄的房间里涂鸦,期待精疲力尽的妈妈放工归来。导演按照本身履历改编,描画了一幅疏离而忧伤的童年画卷,以敏感而谨慎的态度,勾画出多元化社会及移民题目标痛点。
◎获奖情况  
  第2届海南岛国际电影节(2019)
  金椰奖 最好影片奖(提名)
  1. Video
  2. ID                                       : 1
  3. Format                                   : AVC
  4. Format/Info                              : Advanced Video Codec
  5. Format profile                           : [email protected]
  6. Format settings                          : CABAC / 4 Ref Frames
  7. Format settings, CABAC                   : Yes
  8. Format settings, Reference frames        : 4 frames
  9. Format settings, GOP                     : M=4, N=48
  10. Codec ID                                 : V_MPEG4/ISO/AVC
  11. Duration                                 : 1 h 35 min
  12. Bit rate mode                            : Variable
  13. Bit rate                                 : 8 217 kb/s
  14. Maximum bit rate                         : 12.4 Mb/s
  15. Width                                    : 1 920 pixels
  16. Height                                   : 1 080 pixels
  17. Display aspect ratio                     : 16:9
  18. Frame rate mode                          : Constant
  19. Frame rate                               : 23.976 (24000/1001/189150) FPS
  20. Color space                              : YUV
  21. Chroma subsampling                       : 4:2:0
  22. Bit depth                                : 8 bits
  23. Scan type                                : Progressive
  24. Bits/(Pixel*Frame)                       : 0.165
  25. Stream size                              : 5.46 GiB (96%)
  26. Default                                  : Yes
  27. Forced                                   : No
  28. Audio
  29. ID                                       : 2
  30. Format                                   : AC-3
  31. Format/Info                              : Audio Coding 3
  32. Commercial name                          : Dolby Digital
  33. Codec ID                                 : A_AC3
  34. Duration                                 : 1 h 35 min
  35. Bit rate mode                            : Constant
  36. Bit rate                                 : 384 kb/s
  37. Channel(s)                               : 2 channels
  38. Channel layout                           : L R
  39. Sampling rate                            : 48.0 kHz
  40. Frame rate                               : 31.250 FPS (1536 SPF)
  41. Bit depth                                : 16 bits
  42. Compression mode                         : Lossy
  43. Stream size                              : 261 MiB (4%)
  44. Language                                 : Spanish
  45. Service kind                             : Complete Main
  46. Default                                  : Yes
  47. Forced                                   : No
  48. Text #1
  49. ID                                       : 3
  50. Format                                   : UTF-8
  51. Codec ID                                 : S_TEXT/UTF8
  52. Codec ID/Info                            : UTF-8 Plain Text
  53. Duration                                 : 1 h 30 min
  54. Bit rate                                 : 27 b/s
  55. Count of elements                        : 778
  56. Stream size                              : 18.2 KiB (0%)
  57. Title                                    : Espa?ol
  58. Language                                 : Spanish
  59. Default                                  : No
  60. Forced                                   : No
  61. Text #2
  62. ID                                       : 4
  63. Format                                   : UTF-8
  64. Codec ID                                 : S_TEXT/UTF8
  65. Codec ID/Info                            : UTF-8 Plain Text
  66. Duration                                 : 1 h 29 min
  67. Bit rate                                 : 18 b/s
  68. Count of elements                        : 508
  69. Stream size                              : 12.5 KiB (0%)
  70. Language                                 : English
  71. Default                                  : Yes
  72. Forced                                   : No
复制代码






                                       
                                       

                                       
                                       
                                       




回复

使用道具 举报

懒得打字嘛,点击右侧快捷回复 【右侧内容,后台自定义】
您需要登录后才可以回帖 登录 | 立即加入

本版积分规则

Archiver|小黑屋| 蓝光电影网 |网站地图

Copyright © 2021 Comsenz Inc. Powered by 蓝光电影网

蓝光电影网

本站内容由用户自主分享和转载自互联网,转载目的在于传递更多信息,并不代表本网赞同其观点和对其真实性负责。

如有侵权、违反国家法律政策行为,请联系我们,我们会第一时间及时清除和处理!

举报反馈邮箱:[email protected]

快速回复 返回顶部 返回列表