找回密码

蓝光电影网

查看: 8|回复: 0

[剧情] 伤心小孩 The.Heartbreak.Kid.1993.1080p.WEBRip.AAC2.0.x264-PlayWEB 4.24GB

[复制链接]
蓝光币
382
发表于 2021-8-20 00:41:21 | 显示全部楼层 |阅读模式


◎译  名 悲伤小孩
◎片  名 The Heartbreak Kid
◎年  代 1993
◎产  地 澳大利亚
◎类  别 剧情
◎语  言 英语
◎上映日期 1993-06-17
◎IMDb链接  http://www.imdb.com/title/tt0107093/
◎豆瓣评分 0/10 from 0 users
◎豆瓣链接 https://movie.douban.com/subject/3013549/
◎片  长 97 分钟
◎导  演 Michael Jenkins
◎编  剧 Robert Barrett (play) / Robert Barrett (screenplay)
◎主  演 Alex Dimitriades
       Claudia Karvan

◎标  签 澳大利亚 | 美国 | 电影 | 恋爱 | 剧情 | P-MontrealA入围主比赛 | 1993 | 1990s欧美
◎简  介

  
  A hip, hot and sexy lesson in love!
  Christina (Claudia Karvan) is a school teacher from a wealthy Greek-Australian background, engaged to a lawyer and content with the traditional course of her life. She begins teaching at an inner-city working-class school and she finds her ideas challenged by the students. Involving herself in a campaign by a group of non-anglo students to form a soccer club in a school where the racist PE teacher only supports Australian Rules Football, Christina starts falling in love with aspiring soccer player, 17 year old Nick (Alex Dimitriades). The ensuing affair forces Christina to challenge herself, her family and the culture she lives in.
  Managing to effectively combine comedy with a refreshing examination of contemporary ethnic relationships in Australia, beautifully acted by a young cast, and insightfully scripted.
  1. Video
  2. ID                                       : 1
  3. Format                                   : AVC
  4. Format/Info                              : Advanced Video Codec
  5. Format profile                           : [email protected]
  6. Format settings                          : CABAC / 4 Ref Frames
  7. Format settings, CABAC                   : Yes
  8. Format settings, Reference frames        : 4 frames
  9. Codec ID                                 : V_MPEG4/ISO/AVC
  10. Duration                                 : 1 h 33 min
  11. Bit rate                                 : 6 368 kb/s
  12. Width                                    : 1 920 pixels
  13. Height                                   : 1 080 pixels
  14. Display aspect ratio                     : 16:9
  15. Frame rate mode                          : Constant
  16. Frame rate                               : 25.000 FPS
  17. Color space                              : YUV
  18. Chroma subsampling                       : 4:2:0
  19. Bit depth                                : 8 bits
  20. Scan type                                : Progressive
  21. Bits/(Pixel*Frame)                       : 0.123
  22. Stream size                              : 4.15 GiB (98%)
  23. Default                                  : Yes
  24. Forced                                   : No
  25. Color range                              : Limited
  26. Color primaries                          : BT.709
  27. Transfer characteristics                 : BT.709
  28. Matrix coefficients                      : BT.709
  29. Audio
  30. ID                                       : 2
  31. Format                                   : AAC LC
  32. Format/Info                              : Advanced Audio Codec Low Complexity
  33. Codec ID                                 : A_AAC-2
  34. Duration                                 : 1 h 33 min
  35. Bit rate                                 : 126 kb/s
  36. Channel(s)                               : 2 channels
  37. Channel layout                           : L R
  38. Sampling rate                            : 44.1 kHz
  39. Frame rate                               : 43.066 FPS (1024 SPF)
  40. Compression mode                         : Lossy
  41. Stream size                              : 83.9 MiB (2%)
  42. Language                                 : English
  43. Default                                  : Yes
  44. Forced                                   : No
  45. Text
  46. ID                                       : 3
  47. Format                                   : UTF-8
  48. Codec ID                                 : S_TEXT/UTF8
  49. Codec ID/Info                            : UTF-8 Plain Text
  50. Duration                                 : 1 h 33 min
  51. Bit rate                                 : 61 b/s
  52. Count of elements                        : 1837
  53. Stream size                              : 42.0 KiB (0%)
  54. Language                                 : English
  55. Default                                  : Yes
  56. Forced                                   : No
复制代码




                                       
                                       

                                       
                                       
                                       




回复

使用道具 举报

懒得打字嘛,点击右侧快捷回复 【右侧内容,后台自定义】
您需要登录后才可以回帖 登录 | 立即加入

本版积分规则

Archiver|小黑屋| 蓝光电影网 |网站地图

Copyright © 2021 Comsenz Inc. Powered by 蓝光电影网

蓝光电影网

本站内容由用户自主分享和转载自互联网,转载目的在于传递更多信息,并不代表本网赞同其观点和对其真实性负责。

如有侵权、违反国家法律政策行为,请联系我们,我们会第一时间及时清除和处理!

举报反馈邮箱:[email protected]

快速回复 返回顶部 返回列表