找回密码

蓝光电影网

查看: 10|回复: 0

[剧情] 寂寞城市/七个女人的故事 Things.You.Can.Tell.Just.by.Looking.at.Her.2000.1080p.AMZN.WEBRip.DDP5.1.x264-iKA 7.89GB

[复制链接]
蓝光币
426
发表于 2021-8-20 00:41:29 | 显示全部楼层 |阅读模式


◎译  名 孤单城市 / 七个女人的故事 / 望穿伊人
◎片  名 Things You Can Tell Just by Looking at Her
◎年  代 1999
◎产  地 美国
◎类  别 剧情 / 恋爱
◎语  言 英语
◎上映日期 2000-10-04
◎IMDb评分  6.5/10 from 6420 users
◎IMDb链接  https://www.imdb.com/title/tt0210358
◎豆瓣评分 7.6/10 from 783 users
◎豆瓣链接 https://movie.douban.com/subject/1304294/
◎片  长 109 分钟
◎导  演 Rodrigo García
◎编  剧 Rodrigo García
◎主  演 Glenn Close
       Cameron Diaz
       Calista Flockhart
       Kathy Baker
       Amy Brenneman
       Valeria Golino

◎标  签 女性 | 美国电影 | 美国 | 恋爱 | 2000 | Cameron_Diaz | 剧情 | 电影
◎简  介

  
  影片由5个看似没有联系的片断组成:专业的银行女司理竟在恋爱上吃了闷亏;文雅的心理医生渴望一个懂她的汉子;一对同性情人关系正面临最艰难的考验……她们原本单独面临人生的应战,直到一桩自杀事务发生,五个女子的心灵今后有了使人欣喜的交会。
◎获奖情况  
  第53届戛纳电影节(2000)
  一种关注单元 一种关注大奖 罗德里戈·加西亚
  1. Video
  2. ID                                       : 1
  3. Format                                   : AVC
  4. Format/Info                              : Advanced Video Codec
  5. Format profile                           : [email protected]
  6. Format settings                          : CABAC / 4 Ref Frames
  7. Format settings, CABAC                   : Yes
  8. Format settings, Reference frames        : 4 frames
  9. Codec ID                                 : V_MPEG4/ISO/AVC
  10. Duration                                 : 1 h 49 min
  11. Bit rate mode                            : Constant
  12. Bit rate                                 : 10 000 kb/s
  13. Width                                    : 1 920 pixels
  14. Height                                   : 1 040 pixels
  15. Display aspect ratio                     : 1.85:1
  16. Frame rate mode                          : Constant
  17. Frame rate                               : 23.976 (24000/1001/189150) FPS
  18. Color space                              : YUV
  19. Chroma subsampling                       : 4:2:0
  20. Bit depth                                : 8 bits
  21. Scan type                                : Progressive
  22. Bits/(Pixel*Frame)                       : 0.209
  23. Stream size                              : 7.40 GiB (94%)
  24. Default                                  : Yes
  25. Forced                                   : No
  26. Color range                              : Limited
  27. Color primaries                          : BT.709
  28. Transfer characteristics                 : BT.709
  29. Matrix coefficients                      : BT.709
  30. Audio
  31. ID                                       : 2
  32. Format                                   : E-AC-3
  33. Format/Info                              : Enhanced AC-3
  34. Commercial name                          : Dolby Digital Plus
  35. Codec ID                                 : A_EAC3
  36. Duration                                 : 1 h 49 min
  37. Bit rate mode                            : Constant
  38. Bit rate                                 : 640 kb/s
  39. Channel(s)                               : 6 channels
  40. Channel layout                           : L R C LFE Ls Rs
  41. Sampling rate                            : 48.0 kHz
  42. Frame rate                               : 31.250 FPS (1536 SPF)
  43. Compression mode                         : Lossy
  44. Stream size                              : 501 MiB (6%)
  45. Language                                 : English
  46. Service kind                             : Complete Main
  47. Default                                  : Yes
  48. Forced                                   : No
  49. Text
  50. ID                                       : 3
  51. Format                                   : UTF-8
  52. Codec ID                                 : S_TEXT/UTF8
  53. Codec ID/Info                            : UTF-8 Plain Text
  54. Duration                                 : 1 h 44 min
  55. Bit rate                                 : 47 b/s
  56. Count of elements                        : 1184
  57. Stream size                              : 36.2 KiB (0%)
  58. Title                                    : SDH
  59. Language                                 : English
  60. Default                                  : No
  61. Forced                                   : No
复制代码






                                       
                                       

                                       
                                       
                                       




回复

使用道具 举报

懒得打字嘛,点击右侧快捷回复 【右侧内容,后台自定义】
您需要登录后才可以回帖 登录 | 立即加入

本版积分规则

Archiver|小黑屋| 蓝光电影网 |网站地图

Copyright © 2021 Comsenz Inc. Powered by 蓝光电影网

蓝光电影网

本站内容由用户自主分享和转载自互联网,转载目的在于传递更多信息,并不代表本网赞同其观点和对其真实性负责。

如有侵权、违反国家法律政策行为,请联系我们,我们会第一时间及时清除和处理!

举报反馈邮箱:[email protected]

快速回复 返回顶部 返回列表