找回密码

蓝光电影网

查看: 16|回复: 0

[剧情] 闪耀你的双眼 Shine.Your.Eyes.2020.PORTUGUESE.1080p.NF.WEBRip.DDP5.1.x264-TEPES 5.43GB

[复制链接]
蓝光币
382
发表于 2021-8-20 00:41:41 | 显示全部楼层 |阅读模式


◎译  名 闪烁你的双眼 / Shine Your Eyes / 鸟城
◎片  名 Cidade Pássaro
◎年  代 2020
◎产  地 巴西 / 法国
◎类  别 剧情
◎语  言 葡萄牙语 / 英语 / 伊博语 / 匈牙利语 / 汉语普通话
◎上映日期 2020-02-21(柏林电影节)
◎IMDb评分  7.1/10 from 37 users
◎IMDb链接  https://www.imdb.com/title/tt8477336
◎豆瓣评分 0/10 from 0 users
◎豆瓣链接 https://movie.douban.com/subject/34935873/
◎片  长 102分钟
◎导  演 Matias Mariani
◎编  剧 马蒂亚斯·马里亚尼 Matias Mariani / 奇卡·阿纳杜 Chika Anadu / Francine Barbosa / 朱莉娅·穆拉特 Júlia Murat / 迈拉·布勒 Maíra Bühler / Roberto Winter
◎主  演 O. C. Ukeje
       Chukwudi Iwuji
       Indira Nascimento
       Paulo Andre
       Ike Barry

◎标  签 巴西 | P-BerlinB入围全景单元 | Berlinale70
◎简  介

  
  Because he has not heard anything from his older brother Ikenna, musician Amadi travels from Nigeria to the metropolis of S?o Paulo. But Ikenna remains missing. Cidade Pássaro (Shine Your Eyes) is an enigmatic exploration on multiple levels.
  1. Video
  2. ID                                       : 1
  3. Format                                   : AVC
  4. Format/Info                              : Advanced Video Codec
  5. Format profile                           : [email protected]
  6. Format settings                          : CABAC / 4 Ref Frames
  7. Format settings, CABAC                   : Yes
  8. Format settings, Reference frames        : 4 frames
  9. Codec ID                                 : V_MPEG4/ISO/AVC
  10. Duration                                 : 1 h 42 min
  11. Bit rate mode                            : Variable
  12. Bit rate                                 : 6 941 kb/s
  13. Maximum bit rate                         : 20.0 Mb/s
  14. Width                                    : 1 440 pixels
  15. Height                                   : 1 080 pixels
  16. Display aspect ratio                     : 4:3
  17. Frame rate mode                          : Constant
  18. Frame rate                               : 23.976 (24000/1001/189150) FPS
  19. Color space                              : YUV
  20. Chroma subsampling                       : 4:2:0
  21. Bit depth                                : 8 bits
  22. Scan type                                : Progressive
  23. Bits/(Pixel*Frame)                       : 0.186
  24. Stream size                              : 4.97 GiB (92%)
  25. Writing library                          : x264 core 148 r2721 6d200cf
  26. Encoding settings                        : cabac=1 / ref=4 / deblock=1:0:0 / analyse=0x3:0x111 / me=umh / subme=10 / psy=1 / psy_rd=1.00:0.00 / mixed_ref=1 / me_range=120 / chroma_me=1 / trellis=2 / 8x8dct=1 / cqm=0 / deadzone=21,11 / fast_pskip=1 / chroma_qp_offset=-2 / threads=8 / lookahead_threads=2 / sliced_threads=0 / nr=0 / decimate=1 / interlaced=0 / bluray_compat=0 / stitchable=1 / constrained_intra=0 / bframes=16 / b_pyramid=2 / b_adapt=2 / b_bias=0 / direct=3 / weightb=1 / open_gop=0 / weightp=2 / keyint=240 / keyint_min=121 / scenecut=0 / intra_refresh=0 / rc_lookahead=240 / rc=crf / mbtree=1 / crf=17.0 / qcomp=0.50 / qpmin=6 / qpmax=51 / qpstep=4 / vbv_maxrate=20000 / vbv_bufsize=25000 / crf_max=0.0 / nal_hrd=vbr / filler=0 / ip_ratio=1.40 / aq=1:0.80
  27. Default                                  : Yes
  28. Forced                                   : No
  29. Audio
  30. ID                                       : 2
  31. Format                                   : E-AC-3
  32. Format/Info                              : Enhanced AC-3
  33. Commercial name                          : Dolby Digital Plus
  34. Codec ID                                 : A_EAC3
  35. Duration                                 : 1 h 42 min
  36. Bit rate mode                            : Constant
  37. Bit rate                                 : 640 kb/s
  38. Channel(s)                               : 6 channels
  39. Channel layout                           : L R C LFE Ls Rs
  40. Sampling rate                            : 48.0 kHz
  41. Frame rate                               : 31.250 FPS (1536 SPF)
  42. Compression mode                         : Lossy
  43. Stream size                              : 469 MiB (8%)
  44. Language                                 : Portuguese
  45. Service kind                             : Complete Main
  46. Default                                  : Yes
  47. Forced                                   : No
  48. Text #1
  49. ID                                       : 3
  50. Format                                   : UTF-8
  51. Codec ID                                 : S_TEXT/UTF8
  52. Codec ID/Info                            : UTF-8 Plain Text
  53. Duration                                 : 1 h 35 min
  54. Bit rate                                 : 21 b/s
  55. Count of elements                        : 432
  56. Stream size                              : 14.9 KiB (0%)
  57. Title                                    : Forced
  58. Language                                 : English
  59. Default                                  : Yes
  60. Forced                                   : Yes
  61. Text #2
  62. ID                                       : 4
  63. Format                                   : UTF-8
  64. Codec ID                                 : S_TEXT/UTF8
  65. Codec ID/Info                            : UTF-8 Plain Text
  66. Duration                                 : 1 h 36 min
  67. Bit rate                                 : 56 b/s
  68. Count of elements                        : 1179
  69. Stream size                              : 39.7 KiB (0%)
  70. Title                                    : SDH
  71. Language                                 : English
  72. Default                                  : No
  73. Forced                                   : No
  74. Text #3
  75. ID                                       : 5
  76. Format                                   : UTF-8
  77. Codec ID                                 : S_TEXT/UTF8
  78. Codec ID/Info                            : UTF-8 Plain Text
  79. Duration                                 : 1 h 41 min
  80. Bit rate                                 : 58 b/s
  81. Count of elements                        : 935
  82. Stream size                              : 43.6 KiB (0%)
  83. Language                                 : Arabic
  84. Default                                  : No
  85. Forced                                   : No
  86. Text #4
  87. ID                                       : 6
  88. Format                                   : UTF-8
  89. Codec ID                                 : S_TEXT/UTF8
  90. Codec ID/Info                            : UTF-8 Plain Text
  91. Duration                                 : 1 h 41 min
  92. Bit rate                                 : 36 b/s
  93. Count of elements                        : 856
  94. Stream size                              : 27.3 KiB (0%)
  95. Title                                    : Latin American
  96. Language                                 : Spanish
  97. Default                                  : No
  98. Forced                                   : No
  99. Text #5
  100. ID                                       : 7
  101. Format                                   : UTF-8
  102. Codec ID                                 : S_TEXT/UTF8
  103. Codec ID/Info                            : UTF-8 Plain Text
  104. Duration                                 : 1 h 35 min
  105. Bit rate                                 : 38 b/s
  106. Count of elements                        : 912
  107. Stream size                              : 27.3 KiB (0%)
  108. Language                                 : French
  109. Default                                  : No
  110. Forced                                   : No
  111. Text #6
  112. ID                                       : 8
  113. Format                                   : UTF-8
  114. Codec ID                                 : S_TEXT/UTF8
  115. Codec ID/Info                            : UTF-8 Plain Text
  116. Duration                                 : 1 h 35 min
  117. Bit rate                                 : 35 b/s
  118. Count of elements                        : 732
  119. Stream size                              : 24.6 KiB (0%)
  120. Title                                    : Brazilian
  121. Language                                 : Portuguese
  122. Default                                  : No
  123. Forced                                   : No
复制代码






                                       
                                       

                                       
                                       
                                       




回复

使用道具 举报

懒得打字嘛,点击右侧快捷回复 【右侧内容,后台自定义】
您需要登录后才可以回帖 登录 | 立即加入

本版积分规则

Archiver|小黑屋| 蓝光电影网 |网站地图

Copyright © 2021 Comsenz Inc. Powered by 蓝光电影网

蓝光电影网

本站内容由用户自主分享和转载自互联网,转载目的在于传递更多信息,并不代表本网赞同其观点和对其真实性负责。

如有侵权、违反国家法律政策行为,请联系我们,我们会第一时间及时清除和处理!

举报反馈邮箱:[email protected]

快速回复 返回顶部 返回列表