找回密码

蓝光电影网

查看: 13|回复: 0

[剧情] 夏日国度/夏日 Summerland.2020.1080p.WEB-DL.DD5.1.H264-FGT 3.46GB

[复制链接]
蓝光币
426
发表于 2021-8-20 00:42:01 | 显示全部楼层 |阅读模式


◎译  名 夏日国家 / 夏日 / 夏日乐园 / 恋夏时光(台)
◎片  名 Summerland
◎年  代 2020
◎产  地 英国
◎类  别 剧情 / 战争
◎语  言 英语
◎上映日期 2020-07-24(英国)
◎IMDb评分  6.8/10 from 38 users
◎IMDb链接  https://www.imdb.com/title/tt6841122
◎豆瓣评分 0/10 from 0 users
◎豆瓣链接 https://movie.douban.com/subject/27033572/
◎片  长 99分钟
◎导  演 杰西卡·斯维尔 Jessica Swale
◎编  剧 杰西卡·斯维尔 Jessica Swale
◎主  演 杰玛·阿特登 Gemma Arterton
       卢卡斯·邦德 Lucas Bond
       古古·姆巴塔-劳 Gugu Mbatha-Raw
       佩内洛普·威尔顿 Penelope Wilton
       汤姆·康特奈 Tom Courtenay
       简·菲利普斯 Sian Phillips
       阿曼达·鲁特 Amanda Root
       阿曼达·劳伦斯 Amanda Lawrence
       迪克西·艾格瑞克斯 Dixie Egerickx
       杰西卡·古宁 Jessica Gunning
       大卫·霍罗维奇 David Horovitch
       卡尔·法雷尔 Karl Farrer
       丹尼尔·厄根 Daniel Eghan
       伯纳多·桑托斯 Bernardo Santos
       泰·赫尔利 Ty Hurley
       克莱尔·阿什顿 Claire Ashton
       Toby Osmond
       Sally Scott

◎标  签 英国 | 女性 | 同性 | 二战 | LGBT | 2020 | les | 文艺
◎简  介

  
  二次天下大战时代,性情孤独偏僻,拒人于千里之外的作家爱丽丝(杰玛·阿特登饰)单独隐居在英国南方的海边绝壁旁,苦心钻研以科学理论颠覆魔法的存在。某日,一位从伦敦战区出亡而来的男孩法兰克(卢卡·斯邦德 饰)闯入她的独居生活,各式不愿的爱丽丝对法兰克极为冷酷、悲观,在旦夕相处下,法兰克的天真与纯真却逐步崩溃爱丽丝封锁的心房,也叫醒她深埋心中的奥秘—那年炎天,她与旧情人(古古·姆芭塔-劳 饰)所共度的美好时光……
  1. Video
  2. ID                                       : 1
  3. Format                                   : AVC
  4. Format/Info                              : Advanced Video Codec
  5. Format profile                           : [email protected]
  6. Format settings                          : CABAC / 5 Ref Frames
  7. Format settings, CABAC                   : Yes
  8. Format settings, Reference frames        : 5 frames
  9. Codec ID                                 : V_MPEG4/ISO/AVC
  10. Duration                                 : 1 h 39 min
  11. Bit rate                                 : 4 597 kb/s
  12. Width                                    : 1 920 pixels
  13. Height                                   : 796 pixels
  14. Display aspect ratio                     : 2.40:1
  15. Frame rate mode                          : Constant
  16. Frame rate                               : 23.976 FPS
  17. Color space                              : YUV
  18. Chroma subsampling                       : 4:2:0
  19. Bit depth                                : 8 bits
  20. Scan type                                : Progressive
  21. Bits/(Pixel*Frame)                       : 0.125
  22. Stream size                              : 3.19 GiB (92%)
  23. Title                                    : Summerland.2020.1080p.WEB-DL.DD5.1.H264-FGT
  24. Language                                 : English
  25. Default                                  : Yes
  26. Forced                                   : No
  27. Color range                              : Limited
  28. Color primaries                          : BT.709
  29. Transfer characteristics                 : BT.709
  30. Matrix coefficients                      : BT.709
  31. Audio
  32. ID                                       : 2
  33. Format                                   : AC-3
  34. Format/Info                              : Audio Coding 3
  35. Commercial name                          : Dolby Digital
  36. Codec ID                                 : A_AC3
  37. Duration                                 : 1 h 39 min
  38. Bit rate mode                            : Constant
  39. Bit rate                                 : 384 kb/s
  40. Channel(s)                               : 6 channels
  41. Channel layout                           : L R C LFE Ls Rs
  42. Sampling rate                            : 48.0 kHz
  43. Frame rate                               : 31.250 FPS (1536 SPF)
  44. Bit depth                                : 16 bits
  45. Compression mode                         : Lossy
  46. Stream size                              : 273 MiB (8%)
  47. Title                                    : Summerland.2020.1080p.WEB-DL.DD5.1.H264-FGT
  48. Language                                 : English
  49. Service kind                             : Complete Main
  50. Default                                  : Yes
  51. Forced                                   : No
  52. Text
  53. ID                                       : 3
  54. Format                                   : UTF-8
  55. Codec ID                                 : S_TEXT/UTF8
  56. Codec ID/Info                            : UTF-8 Plain Text
  57. Duration                                 : 1 h 32 min
  58. Bit rate                                 : 39 b/s
  59. Count of elements                        : 1162
  60. Stream size                              : 26.5 KiB (0%)
  61. Language                                 : English
  62. Default                                  : Yes
  63. Forced                                   : No
  64. Menu
  65. 00:00:00.000                             : en:1
  66. 00:14:44.968                             : en:2
  67. 00:25:04.920                             : en:3
  68. 00:37:17.235                             : en:4
  69. 00:49:46.233                             : en:5
  70. 01:01:06.287                             : en:6
  71. 01:15:17.053                             : en:7
  72. 01:22:25.189                             : en:8
  73. 01:33:28.601                             : en:9
复制代码





                                       
                                       

                                       
                                       
                                       




回复

使用道具 举报

懒得打字嘛,点击右侧快捷回复 【右侧内容,后台自定义】
您需要登录后才可以回帖 登录 | 立即加入

本版积分规则

Archiver|小黑屋| 蓝光电影网 |网站地图

Copyright © 2021 Comsenz Inc. Powered by 蓝光电影网

蓝光电影网

本站内容由用户自主分享和转载自互联网,转载目的在于传递更多信息,并不代表本网赞同其观点和对其真实性负责。

如有侵权、违反国家法律政策行为,请联系我们,我们会第一时间及时清除和处理!

举报反馈邮箱:[email protected]

快速回复 返回顶部 返回列表