找回密码

蓝光电影网

查看: 13|回复: 0

[剧情] 敢梦有爱/敢爱有梦 The.Secret.Dare.to.Dream.2020.1080p.WEBRip.DD5.1.x264-CM 4.36GB

[复制链接]
蓝光币
426
发表于 2021-8-20 00:42:05 | 显示全部楼层 |阅读模式


◎译  名 敢梦有爱 / 敢爱有梦 / 奥秘:勇于胡想 / 奥秘:胡想的气力(台)
◎片  名 The Secret: Dare to Dream
◎年  代 2020
◎产  地 美国
◎类  别 剧情 / 恋爱
◎语  言 英语
◎上映日期 2020-04-17(美国)
◎IMDb评分  6.8/10 from 58 users
◎IMDb链接  https://www.imdb.com/title/tt4411584
◎豆瓣评分 0/10 from 0 users
◎豆瓣链接 https://movie.douban.com/subject/27153409/
◎导  演 安迪·坦纳特 Andy Tennant
◎编  剧 丽贝卡·布鲁斯特 Rebecca Brunstetter / 安迪·坦纳特 Andy Tennant / Rhonda Byrne / Rick Parks
◎主  演 凯蒂·霍尔姆斯 Katie Holmes
       乔什·卢卡斯 Josh Lucas
       杰瑞·奥康奈尔 Jerry O'Connell
       西利亚·维斯顿 Celia Weston
       Aidan Pierce Brennan
       Katrina Begin
       萨曼莎·博利厄 Samantha Beaulieu
       约翰斯·迈尔斯 Yohance Myles
       Rosemberg Salgado
       Jessie Terrebonne
       瓦妮塔·沃姆斯利 Wanetah Walmsley
       科里·斯科特·艾伦 Cory Scott Allen
       杰西卡·哈特科克 Jessica Harthcock
       Betsy Borrego
       Sydney Tennant
       Chloe Lee
       Sarah Hoffmeister

◎标  签 鸡汤 | 心理 | 美国 | 2020
◎简  介

  
  改编自全球畅销励志作品《奥秘》。故事描写单独抚养三个孩子的孀妇米兰达(凯蒂荷姆丝 饰)在一场风暴事后,招聘了一位水电工布雷(乔许卢卡斯 饰)修缮受损的住家。 在闲暇之余,布雷会与米兰达分享他的人生哲学“吸引力法例”,布雷相信只要打从心底渴望某件事物,宇宙自然会有气力助你心想事成、胡想成真……
  1. Video
  2. ID                                       : 1
  3. Format                                   : AVC
  4. Format/Info                              : Advanced Video Codec
  5. Format profile                           : [email protected]
  6. Format settings                          : CABAC / 2 Ref Frames
  7. Format settings, CABAC                   : Yes
  8. Format settings, Reference frames        : 2 frames
  9. Codec ID                                 : V_MPEG4/ISO/AVC
  10. Duration                                 : 1 h 47 min
  11. Bit rate                                 : 5 409 kb/s
  12. Width                                    : 1 920 pixels
  13. Height                                   : 1 080 pixels
  14. Display aspect ratio                     : 16:9
  15. Frame rate mode                          : Constant
  16. Frame rate                               : 23.976 (24000/1001/189150) FPS
  17. Color space                              : YUV
  18. Chroma subsampling                       : 4:2:0
  19. Bit depth                                : 8 bits
  20. Scan type                                : Progressive
  21. Bits/(Pixel*Frame)                       : 0.109
  22. Stream size                              : 4.07 GiB (93%)
  23. Writing library                          : x264 core 155 r2901 7d0ff22
  24. Language                                 : English
  25. Default                                  : Yes
  26. Forced                                   : No
  27. Color range                              : Limited
  28. Color primaries                          : BT.709
  29. Transfer characteristics                 : BT.709
  30. Matrix coefficients                      : BT.709
  31. Audio
  32. ID                                       : 2
  33. Format                                   : AC-3
  34. Format/Info                              : Audio Coding 3
  35. Commercial name                          : Dolby Digital
  36. Codec ID                                 : A_AC3
  37. Duration                                 : 1 h 47 min
  38. Bit rate mode                            : Constant
  39. Bit rate                                 : 384 kb/s
  40. Channel(s)                               : 6 channels
  41. Channel layout                           : L R C LFE Ls Rs
  42. Sampling rate                            : 48.0 kHz
  43. Frame rate                               : 31.250 FPS (1536 SPF)
  44. Bit depth                                : 16 bits
  45. Compression mode                         : Lossy
  46. Stream size                              : 296 MiB (7%)
  47. Language                                 : English
  48. Service kind                             : Complete Main
  49. Default                                  : Yes
  50. Forced                                   : No
  51. Text
  52. ID                                       : 3
  53. Format                                   : UTF-8
  54. Codec ID                                 : S_TEXT/UTF8
  55. Codec ID/Info                            : UTF-8 Plain Text
  56. Duration                                 : 1 h 39 min
  57. Bit rate                                 : 66 b/s
  58. Count of elements                        : 1549
  59. Stream size                              : 48.3 KiB (0%)
  60. Language                                 : English
  61. Default                                  : Yes
  62. Forced                                   : No
复制代码






                                       
                                       

                                       
                                       
                                       




回复

使用道具 举报

懒得打字嘛,点击右侧快捷回复 【右侧内容,后台自定义】
您需要登录后才可以回帖 登录 | 立即加入

本版积分规则

Archiver|小黑屋| 蓝光电影网 |网站地图

Copyright © 2021 Comsenz Inc. Powered by 蓝光电影网

蓝光电影网

本站内容由用户自主分享和转载自互联网,转载目的在于传递更多信息,并不代表本网赞同其观点和对其真实性负责。

如有侵权、违反国家法律政策行为,请联系我们,我们会第一时间及时清除和处理!

举报反馈邮箱:[email protected]

快速回复 返回顶部 返回列表