找回密码

蓝光电影网

查看: 13|回复: 0

[剧情] 法式三角恋 French.Dirty.2015.1080p.NF.WEBRip.DDP5.1.x264-TEPES 2.75GB

[复制链接]
蓝光币
382
发表于 2021-8-20 00:42:13 | 显示全部楼层 |阅读模式


◎译  名 法式三角恋
◎片  名 French Dirty
◎年  代 2015
◎产  地 美国
◎类  别 剧情 / 笑剧
◎语  言 英语
◎IMDb评分  5.2/10 from 197 users
◎IMDb链接  https://www.imdb.com/title/tt3675504
◎豆瓣评分 0/10 from 0 users
◎豆瓣链接 https://movie.douban.com/subject/30306073/
◎片  长 72分钟
◎导  演 Jesse Allain-Marcus, Wade Allain-Marcus
◎编  剧 Wade Allain-Marcus, Peter Hagen
◎主  演 Wade Allain-Marcus
       Melina Lizette
       Arjun Gupta

◎标  签 剧情
◎简  介

  
  一位待业中、拒绝长大的80后年轻人,人生漫无目标,经常和朋友厮混,晓得有天他和兄弟的女友发生关系,才迫使他不能不改变
  1. Video
  2. ID                                       : 1
  3. Format                                   : AVC
  4. Format/Info                              : Advanced Video Codec
  5. Format profile                           : [email protected]
  6. Format settings                          : CABAC / 3 Ref Frames
  7. Format settings, CABAC                   : Yes
  8. Format settings, Reference frames        : 3 frames
  9. Format settings, GOP                     : M=1, N=48
  10. Codec ID                                 : V_MPEG4/ISO/AVC
  11. Duration                                 : 1 h 11 min
  12. Bit rate mode                            : Variable
  13. Bit rate                                 : 4 870 kb/s
  14. Maximum bit rate                         : 7 305 kb/s
  15. Width                                    : 1 920 pixels
  16. Height                                   : 1 080 pixels
  17. Display aspect ratio                     : 16:9
  18. Frame rate mode                          : Constant
  19. Frame rate                               : 23.976 (24000/1001/189150) FPS
  20. Color space                              : YUV
  21. Chroma subsampling                       : 4:2:0
  22. Bit depth                                : 8 bits
  23. Scan type                                : Progressive
  24. Bits/(Pixel*Frame)                       : 0.098
  25. Stream size                              : 2.42 GiB (88%)
  26. Writing library                          : x264 core 118
  27. Encoding settings                        : cabac=1 / ref=3 / deblock=1:0:0 / analyse=0x1:0x111 / me=umh / subme=10 / psy=1 / psy_rd=1.00:0.00 / mixed_ref=1 / me_range=24 / chroma_me=1 / trellis=2 / 8x8dct=0 / cqm=0 / deadzone=21,11 / fast_pskip=1 / chroma_qp_offset=-2 / threads=6 / sliced_threads=0 / nr=0 / decimate=1 / interlaced=0 / bluray_compat=0 / constrained_intra=0 / bframes=2 / b_pyramid=0 / b_adapt=2 / b_bias=0 / direct=3 / weightb=1 / open_gop=0 / weightp=2 / keyint=48 / keyint_min=25 / scenecut=0 / intra_refresh=0 / rc_lookahead=0 / rc=2pass / mbtree=1 / bitrate=4870 / ratetol=1.0 / qcomp=0.50 / qpmin=6 / qpmax=51 / qpstep=4 / cplxblur=20.0 / qblur=0.5 / vbv_maxrate=7305 / vbv_bufsize=9740 / nal_hrd=vbr / ip_ratio=1.40 / aq=1:1.00
  28. Default                                  : Yes
  29. Forced                                   : No
  30. Audio
  31. ID                                       : 2
  32. Format                                   : E-AC-3
  33. Format/Info                              : Enhanced AC-3
  34. Commercial name                          : Dolby Digital Plus
  35. Codec ID                                 : A_EAC3
  36. Duration                                 : 1 h 11 min
  37. Bit rate mode                            : Constant
  38. Bit rate                                 : 640 kb/s
  39. Channel(s)                               : 6 channels
  40. Channel layout                           : L R C LFE Ls Rs
  41. Sampling rate                            : 48.0 kHz
  42. Frame rate                               : 31.250 FPS (1536 SPF)
  43. Compression mode                         : Lossy
  44. Stream size                              : 328 MiB (12%)
  45. Language                                 : English
  46. Service kind                             : Complete Main
  47. Default                                  : Yes
  48. Forced                                   : No
  49. Text #1
  50. ID                                       : 3
  51. Format                                   : UTF-8
  52. Codec ID                                 : S_TEXT/UTF8
  53. Codec ID/Info                            : UTF-8 Plain Text
  54. Duration                                 : 1 h 7 min
  55. Bit rate                                 : 76 b/s
  56. Count of elements                        : 1168
  57. Stream size                              : 37.9 KiB (0%)
  58. Title                                    : SDH
  59. Language                                 : English
  60. Default                                  : No
  61. Forced                                   : No
  62. Text #2
  63. ID                                       : 4
  64. Format                                   : UTF-8
  65. Codec ID                                 : S_TEXT/UTF8
  66. Codec ID/Info                            : UTF-8 Plain Text
  67. Duration                                 : 1 h 7 min
  68. Bit rate                                 : 96 b/s
  69. Count of elements                        : 1023
  70. Stream size                              : 47.7 KiB (0%)
  71. Language                                 : Arabic
  72. Default                                  : No
  73. Forced                                   : No
  74. Text #3
  75. ID                                       : 5
  76. Format                                   : UTF-8
  77. Codec ID                                 : S_TEXT/UTF8
  78. Codec ID/Info                            : UTF-8 Plain Text
  79. Duration                                 : 1 h 7 min
  80. Bit rate                                 : 57 b/s
  81. Count of elements                        : 992
  82. Stream size                              : 28.4 KiB (0%)
  83. Language                                 : Danish
  84. Default                                  : No
  85. Forced                                   : No
  86. Text #4
  87. ID                                       : 6
  88. Format                                   : UTF-8
  89. Codec ID                                 : S_TEXT/UTF8
  90. Codec ID/Info                            : UTF-8 Plain Text
  91. Duration                                 : 1 h 7 min
  92. Bit rate                                 : 67 b/s
  93. Count of elements                        : 1020
  94. Stream size                              : 33.7 KiB (0%)
  95. Language                                 : German
  96. Default                                  : No
  97. Forced                                   : No
  98. Text #5
  99. ID                                       : 7
  100. Format                                   : UTF-8
  101. Codec ID                                 : S_TEXT/UTF8
  102. Codec ID/Info                            : UTF-8 Plain Text
  103. Duration                                 : 1 h 7 min
  104. Bit rate                                 : 109 b/s
  105. Count of elements                        : 969
  106. Stream size                              : 54.6 KiB (0%)
  107. Language                                 : Greek
  108. Default                                  : No
  109. Forced                                   : No
  110. Text #6
  111. ID                                       : 8
  112. Format                                   : UTF-8
  113. Codec ID                                 : S_TEXT/UTF8
  114. Codec ID/Info                            : UTF-8 Plain Text
  115. Duration                                 : 1 h 7 min
  116. Bit rate                                 : 63 b/s
  117. Count of elements                        : 1018
  118. Stream size                              : 31.5 KiB (0%)
  119. Title                                    : Latin American
  120. Language                                 : Spanish
  121. Default                                  : No
  122. Forced                                   : No
  123. Text #7
  124. ID                                       : 9
  125. Format                                   : UTF-8
  126. Codec ID                                 : S_TEXT/UTF8
  127. Codec ID/Info                            : UTF-8 Plain Text
  128. Duration                                 : 1 h 7 min
  129. Bit rate                                 : 65 b/s
  130. Count of elements                        : 1017
  131. Stream size                              : 32.3 KiB (0%)
  132. Title                                    : European
  133. Language                                 : Spanish
  134. Default                                  : No
  135. Forced                                   : No
  136. Text #8
  137. ID                                       : 10
  138. Format                                   : UTF-8
  139. Codec ID                                 : S_TEXT/UTF8
  140. Codec ID/Info                            : UTF-8 Plain Text
  141. Duration                                 : 1 h 7 min
  142. Bit rate                                 : 52 b/s
  143. Count of elements                        : 980
  144. Stream size                              : 26.2 KiB (0%)
  145. Language                                 : Finnish
  146. Default                                  : No
  147. Forced                                   : No
  148. Text #9
  149. ID                                       : 11
  150. Format                                   : UTF-8
  151. Codec ID                                 : S_TEXT/UTF8
  152. Codec ID/Info                            : UTF-8 Plain Text
  153. Duration                                 : 1 h 7 min
  154. Bit rate                                 : 66 b/s
  155. Count of elements                        : 1004
  156. Stream size                              : 32.8 KiB (0%)
  157. Language                                 : French
  158. Default                                  : No
  159. Forced                                   : No
  160. Text #10
  161. ID                                       : 12
  162. Format                                   : UTF-8
  163. Codec ID                                 : S_TEXT/UTF8
  164. Codec ID/Info                            : UTF-8 Plain Text
  165. Duration                                 : 1 h 7 min
  166. Bit rate                                 : 96 b/s
  167. Count of elements                        : 1091
  168. Stream size                              : 48.1 KiB (0%)
  169. Language                                 : Hebrew
  170. Default                                  : No
  171. Forced                                   : No
  172. Text #11
  173. ID                                       : 13
  174. Format                                   : UTF-8
  175. Codec ID                                 : S_TEXT/UTF8
  176. Codec ID/Info                            : UTF-8 Plain Text
  177. Duration                                 : 1 h 7 min
  178. Bit rate                                 : 65 b/s
  179. Count of elements                        : 1020
  180. Stream size                              : 32.6 KiB (0%)
  181. Language                                 : Italian
  182. Default                                  : No
  183. Forced                                   : No
  184. Text #12
  185. ID                                       : 14
  186. Format                                   : UTF-8
  187. Codec ID                                 : S_TEXT/UTF8
  188. Codec ID/Info                            : UTF-8 Plain Text
  189. Duration                                 : 1 h 7 min
  190. Bit rate                                 : 43 b/s
  191. Count of elements                        : 1122
  192. Stream size                              : 21.7 KiB (0%)
  193. Language                                 : Japanese
  194. Default                                  : No
  195. Forced                                   : No
  196. Text #13
  197. ID                                       : 15
  198. Format                                   : UTF-8
  199. Codec ID                                 : S_TEXT/UTF8
  200. Codec ID/Info                            : UTF-8 Plain Text
  201. Duration                                 : 1 h 7 min
  202. Bit rate                                 : 66 b/s
  203. Count of elements                        : 1023
  204. Stream size                              : 33.1 KiB (0%)
  205. Language                                 : Korean
  206. Default                                  : No
  207. Forced                                   : No
  208. Text #14
  209. ID                                       : 16
  210. Format                                   : UTF-8
  211. Codec ID                                 : S_TEXT/UTF8
  212. Codec ID/Info                            : UTF-8 Plain Text
  213. Duration                                 : 1 h 7 min
  214. Bit rate                                 : 59 b/s
  215. Count of elements                        : 1020
  216. Stream size                              : 29.6 KiB (0%)
  217. Language                                 : Norwegian Bokmal
  218. Default                                  : No
  219. Forced                                   : No
  220. Text #15
  221. ID                                       : 17
  222. Format                                   : UTF-8
  223. Codec ID                                 : S_TEXT/UTF8
  224. Codec ID/Info                            : UTF-8 Plain Text
  225. Duration                                 : 1 h 7 min
  226. Bit rate                                 : 63 b/s
  227. Count of elements                        : 1010
  228. Stream size                              : 31.7 KiB (0%)
  229. Language                                 : Dutch
  230. Default                                  : No
  231. Forced                                   : No
  232. Text #16
  233. ID                                       : 18
  234. Format                                   : UTF-8
  235. Codec ID                                 : S_TEXT/UTF8
  236. Codec ID/Info                            : UTF-8 Plain Text
  237. Duration                                 : 1 h 7 min
  238. Bit rate                                 : 56 b/s
  239. Count of elements                        : 1082
  240. Stream size                              : 28.2 KiB (0%)
  241. Language                                 : Polish
  242. Default                                  : No
  243. Forced                                   : No
  244. Text #17
  245. ID                                       : 19
  246. Format                                   : UTF-8
  247. Codec ID                                 : S_TEXT/UTF8
  248. Codec ID/Info                            : UTF-8 Plain Text
  249. Duration                                 : 1 h 7 min
  250. Bit rate                                 : 69 b/s
  251. Count of elements                        : 1018
  252. Stream size                              : 34.3 KiB (0%)
  253. Title                                    : European
  254. Language                                 : Portuguese
  255. Default                                  : No
  256. Forced                                   : No
  257. Text #18
  258. ID                                       : 20
  259. Format                                   : UTF-8
  260. Codec ID                                 : S_TEXT/UTF8
  261. Codec ID/Info                            : UTF-8 Plain Text
  262. Duration                                 : 1 h 7 min
  263. Bit rate                                 : 65 b/s
  264. Count of elements                        : 1004
  265. Stream size                              : 32.7 KiB (0%)
  266. Title                                    : Brazilian
  267. Language                                 : Portuguese
  268. Default                                  : No
  269. Forced                                   : No
  270. Text #19
  271. ID                                       : 21
  272. Format                                   : UTF-8
  273. Codec ID                                 : S_TEXT/UTF8
  274. Codec ID/Info                            : UTF-8 Plain Text
  275. Duration                                 : 1 h 7 min
  276. Bit rate                                 : 60 b/s
  277. Count of elements                        : 863
  278. Stream size                              : 30.3 KiB (0%)
  279. Language                                 : Romanian
  280. Default                                  : No
  281. Forced                                   : No
  282. Text #20
  283. ID                                       : 22
  284. Format                                   : UTF-8
  285. Codec ID                                 : S_TEXT/UTF8
  286. Codec ID/Info                            : UTF-8 Plain Text
  287. Duration                                 : 1 h 7 min
  288. Bit rate                                 : 63 b/s
  289. Count of elements                        : 1017
  290. Stream size                              : 31.3 KiB (0%)
  291. Language                                 : Swedish
  292. Default                                  : No
  293. Forced                                   : No
  294. Text #21
  295. ID                                       : 23
  296. Format                                   : UTF-8
  297. Codec ID                                 : S_TEXT/UTF8
  298. Codec ID/Info                            : UTF-8 Plain Text
  299. Duration                                 : 1 h 7 min
  300. Bit rate                                 : 162 b/s
  301. Count of elements                        : 1123
  302. Stream size                              : 80.5 KiB (0%)
  303. Language                                 : Thai
  304. Default                                  : No
  305. Forced                                   : No
  306. Text #22
  307. ID                                       : 24
  308. Format                                   : UTF-8
  309. Codec ID                                 : S_TEXT/UTF8
  310. Codec ID/Info                            : UTF-8 Plain Text
  311. Duration                                 : 1 h 7 min
  312. Bit rate                                 : 68 b/s
  313. Count of elements                        : 1111
  314. Stream size                              : 34.0 KiB (0%)
  315. Language                                 : Turkish
  316. Default                                  : No
  317. Forced                                   : No
  318. Text #23
  319. ID                                       : 25
  320. Format                                   : UTF-8
  321. Codec ID                                 : S_TEXT/UTF8
  322. Codec ID/Info                            : UTF-8 Plain Text
  323. Duration                                 : 1 h 7 min
  324. Bit rate                                 : 59 b/s
  325. Count of elements                        : 1023
  326. Stream size                              : 29.5 KiB (0%)
  327. Title                                    : Simplified
  328. Language                                 : Chinese
  329. Default                                  : No
  330. Forced                                   : No
  331. Text #24
  332. ID                                       : 26
  333. Format                                   : UTF-8
  334. Codec ID                                 : S_TEXT/UTF8
  335. Codec ID/Info                            : UTF-8 Plain Text
  336. Duration                                 : 1 h 7 min
  337. Bit rate                                 : 56 b/s
  338. Count of elements                        : 1023
  339. Stream size                              : 28.0 KiB (0%)
  340. Title                                    : Traditional
  341. Language                                 : Chinese
  342. Default                                  : No
  343. Forced                                   : No
复制代码






                                       
                                       

                                       
                                       
                                       




回复

使用道具 举报

懒得打字嘛,点击右侧快捷回复 【右侧内容,后台自定义】
您需要登录后才可以回帖 登录 | 立即加入

本版积分规则

Archiver|小黑屋| 蓝光电影网 |网站地图

Copyright © 2021 Comsenz Inc. Powered by 蓝光电影网

蓝光电影网

本站内容由用户自主分享和转载自互联网,转载目的在于传递更多信息,并不代表本网赞同其观点和对其真实性负责。

如有侵权、违反国家法律政策行为,请联系我们,我们会第一时间及时清除和处理!

举报反馈邮箱:[email protected]

快速回复 返回顶部 返回列表