找回密码

蓝光电影网

查看: 17|回复: 0

[剧情] 玉子 Okja.2017.1080p.NF.WEBRip.DDP5.1.Atmos.x264-NTG 5.33GB

[复制链接]
蓝光币
386
发表于 2021-8-20 00:42:17 | 显示全部楼层 |阅读模式


◎译  名 玉子 / Okja
◎片  名 ??
◎年  代 2017
◎产  地 韩国 / 美国
◎类  别 剧情 / 行动 / 科幻 / 冒险
◎语  言 英语 / 韩语 / 西班牙语
◎上映日期 2017-05-19(戛纳电影节) / 2017-06-28(韩国)
◎IMDb评分  7.3/10 from 97834 users
◎IMDb链接  https://www.imdb.com/title/tt3967856
◎豆瓣评分 6.6/10 from 31399 users
◎豆瓣链接 https://movie.douban.com/subject/26365236/
◎片  长 120分钟
◎导  演 奉俊昊 Joon-ho Bong
◎编  剧 奉俊昊 Joon-ho Bong / 乔恩·容森 Jon Ronson
◎主  演 蒂尔达·斯文顿 Tilda Swinton
       保罗·达诺 Paul Dano
       安瑞贤 Seo-Hyun An
       边熙峰 Hie-bong Byeon
       史蒂文·元 Steven Yeun
       莉莉·柯林斯 Lily Collins
       尹宰文 Je-mun Yun
       雪莉·亨德森 Shirley Henderson
       丹尼尔·亨绍尔 Daniel Henshall
       戴文·博斯蒂克 Devon Bostick
       崔宇植 Woo-Sik Choi
       吉安卡罗·埃斯波西托 Giancarlo Esposito
       杰克·吉伦哈尔 Jake Gyllenhaal
       李静恩 Jung-eun Lee
       崔嬉序 Moon Choi
       尹敬浩 Kyung-ho Yoon
       赵莞基 Wan-gi Jo
       Michael Mitton
       凯瑟琳·柯克帕特里克 Kathryn Kirkpatrick
       李凤莲 Lee Bong-ryeon
       朴根祿 Keun-rok Park
       埃里克·德·波尔 Erik De Boer
       科里·格鲁特-安德鲁 Cory Gruter-Andrew
       Adam Auslander
       瓦里丝·阿卢瓦利亚 Waris Ahluwalia
       T. Sahara Meer
       安德烈亚斯·弗龙克 Andreas Fronk
       迈尔斯·哈姆帕斯 Myles Humphus

◎标  签 韩国 | 科幻 | 2017 | 美国 | 剧情 | 人性 | 怪兽 | 冒险
◎简  介

  
  电影报告了小女孩美子的故事,她必须以身涉险阻止强大的跨国公司绑架自己最好的朋友 — 巨兽“玉子”。
◎获奖情况  
  第70届戛纳电影节(2017)
  主比赛单元 金棕榈奖(提名) 奉俊昊
  1. Video
  2. ID                                       : 1
  3. Format                                   : AVC
  4. Format/Info                              : Advanced Video Codec
  5. Format profile                           : [email protected]
  6. Format settings                          : CABAC / 3 Ref Frames
  7. Format settings, CABAC                   : Yes
  8. Format settings, Reference frames        : 3 frames
  9. Codec ID                                 : V_MPEG4/ISO/AVC
  10. Duration                                 : 2 h 1 min
  11. Bit rate mode                            : Variable
  12. Bit rate                                 : 5 620 kb/s
  13. Maximum bit rate                         : 8 430 kb/s
  14. Width                                    : 1 920 pixels
  15. Height                                   : 1 080 pixels
  16. Display aspect ratio                     : 16:9
  17. Frame rate mode                          : Constant
  18. Frame rate                               : 24.000 FPS
  19. Color space                              : YUV
  20. Chroma subsampling                       : 4:2:0
  21. Bit depth                                : 8 bits
  22. Scan type                                : Progressive
  23. Bits/(Pixel*Frame)                       : 0.113
  24. Stream size                              : 4.68 GiB (88%)
  25. Writing library                          : x264 core 148 r2715 7e75228
  26. Encoding settings                        : cabac=1 / ref=3 / deblock=1:0:0 / analyse=0x1:0x111 / me=umh / subme=10 / psy=1 / psy_rd=1.00:0.00 / mixed_ref=1 / me_range=24 / chroma_me=1 / trellis=2 / 8x8dct=0 / cqm=0 / deadzone=21,11 / fast_pskip=1 / chroma_qp_offset=-2 / threads=6 / lookahead_threads=1 / sliced_threads=0 / nr=0 / decimate=1 / interlaced=0 / bluray_compat=0 / stitchable=1 / constrained_intra=0 / bframes=2 / b_pyramid=0 / b_adapt=2 / b_bias=0 / direct=3 / weightb=1 / open_gop=0 / weightp=2 / keyint=48 / keyint_min=25 / scenecut=0 / intra_refresh=0 / rc_lookahead=48 / rc=2pass / mbtree=1 / bitrate=5620 / ratetol=1.0 / qcomp=0.50 / qpmin=6 / qpmax=51 / qpstep=4 / cplxblur=20.0 / qblur=0.5 / vbv_maxrate=8430 / vbv_bufsize=11240 / nal_hrd=vbr / filler=0 / ip_ratio=1.40 / aq=1:1.00
  27. Default                                  : Yes
  28. Forced                                   : No
  29. Audio
  30. ID                                       : 2
  31. Format                                   : E-AC-3 JOC
  32. Format/Info                              : Enhanced AC-3 with Joint Object Coding
  33. Commercial name                          : Dolby Digital Plus with Dolby Atmos
  34. Codec ID                                 : A_EAC3
  35. Duration                                 : 2 h 1 min
  36. Bit rate mode                            : Constant
  37. Bit rate                                 : 768 kb/s
  38. Channel(s)                               : 6 channels
  39. Channel layout                           : L R C LFE Ls Rs
  40. Sampling rate                            : 48.0 kHz
  41. Frame rate                               : 31.250 FPS (1536 SPF)
  42. Compression mode                         : Lossy
  43. Stream size                              : 667 MiB (12%)
  44. Title                                    : English
  45. Language                                 : English
  46. Service kind                             : Complete Main
  47. Default                                  : Yes
  48. Forced                                   : No
  49. Complexity index                         : 16
  50. Number of dynamic objects                : 15
  51. Bed channel count                        : 1 channel
  52. Bed channel configuration                : LFE
  53. Text #1
  54. ID                                       : 3
  55. Format                                   : UTF-8
  56. Codec ID                                 : S_TEXT/UTF8
  57. Codec ID/Info                            : UTF-8 Plain Text
  58. Duration                                 : 1 h 53 min
  59. Bit rate                                 : 7 b/s
  60. Count of elements                        : 285
  61. Stream size                              : 6.55 KiB (0%)
  62. Title                                    : Forced
  63. Language                                 : English
  64. Default                                  : Yes
  65. Forced                                   : Yes
  66. Text #2
  67. ID                                       : 4
  68. Format                                   : UTF-8
  69. Codec ID                                 : S_TEXT/UTF8
  70. Codec ID/Info                            : UTF-8 Plain Text
  71. Duration                                 : 1 h 59 min
  72. Bit rate                                 : 51 b/s
  73. Count of elements                        : 1440
  74. Stream size                              : 44.8 KiB (0%)
  75. Title                                    : SDH
  76. Language                                 : English
  77. Default                                  : No
  78. Forced                                   : No
  79. Text #3
  80. ID                                       : 5
  81. Format                                   : UTF-8
  82. Codec ID                                 : S_TEXT/UTF8
  83. Codec ID/Info                            : UTF-8 Plain Text
  84. Duration                                 : 1 h 59 min
  85. Bit rate                                 : 40 b/s
  86. Count of elements                        : 1097
  87. Stream size                              : 35.8 KiB (0%)
  88. Language                                 : English
  89. Default                                  : No
  90. Forced                                   : No
  91. Text #4
  92. ID                                       : 6
  93. Format                                   : UTF-8
  94. Codec ID                                 : S_TEXT/UTF8
  95. Codec ID/Info                            : UTF-8 Plain Text
  96. Duration                                 : 1 h 59 min
  97. Bit rate                                 : 76 b/s
  98. Count of elements                        : 1156
  99. Stream size                              : 66.8 KiB (0%)
  100. Language                                 : Arabic
  101. Default                                  : No
  102. Forced                                   : No
  103. Text #5
  104. ID                                       : 7
  105. Format                                   : UTF-8
  106. Codec ID                                 : S_TEXT/UTF8
  107. Codec ID/Info                            : UTF-8 Plain Text
  108. Duration                                 : 1 h 59 min
  109. Bit rate                                 : 38 b/s
  110. Count of elements                        : 1089
  111. Stream size                              : 33.6 KiB (0%)
  112. Language                                 : Danish
  113. Default                                  : No
  114. Forced                                   : No
  115. Text #6
  116. ID                                       : 8
  117. Format                                   : UTF-8
  118. Codec ID                                 : S_TEXT/UTF8
  119. Codec ID/Info                            : UTF-8 Plain Text
  120. Duration                                 : 1 h 59 min
  121. Bit rate                                 : 39 b/s
  122. Count of elements                        : 1042
  123. Stream size                              : 34.4 KiB (0%)
  124. Language                                 : German
  125. Default                                  : No
  126. Forced                                   : No
  127. Text #7
  128. ID                                       : 9
  129. Format                                   : UTF-8
  130. Codec ID                                 : S_TEXT/UTF8
  131. Codec ID/Info                            : UTF-8 Plain Text
  132. Duration                                 : 1 h 59 min
  133. Bit rate                                 : 71 b/s
  134. Count of elements                        : 1182
  135. Stream size                              : 62.5 KiB (0%)
  136. Language                                 : Greek
  137. Default                                  : No
  138. Forced                                   : No
  139. Text #8
  140. ID                                       : 10
  141. Format                                   : UTF-8
  142. Codec ID                                 : S_TEXT/UTF8
  143. Codec ID/Info                            : UTF-8 Plain Text
  144. Duration                                 : 1 h 59 min
  145. Bit rate                                 : 39 b/s
  146. Count of elements                        : 1133
  147. Stream size                              : 35.1 KiB (0%)
  148. Language                                 : Spanish
  149. Default                                  : No
  150. Forced                                   : No
  151. Text #9
  152. ID                                       : 11
  153. Format                                   : UTF-8
  154. Codec ID                                 : S_TEXT/UTF8
  155. Codec ID/Info                            : UTF-8 Plain Text
  156. Duration                                 : 1 h 59 min
  157. Bit rate                                 : 39 b/s
  158. Count of elements                        : 1122
  159. Stream size                              : 35.0 KiB (0%)
  160. Title                                    : European
  161. Language                                 : Spanish
  162. Default                                  : No
  163. Forced                                   : No
  164. Text #10
  165. ID                                       : 12
  166. Format                                   : UTF-8
  167. Codec ID                                 : S_TEXT/UTF8
  168. Codec ID/Info                            : UTF-8 Plain Text
  169. Duration                                 : 1 h 59 min
  170. Bit rate                                 : 34 b/s
  171. Count of elements                        : 1068
  172. Stream size                              : 30.8 KiB (0%)
  173. Language                                 : Finnish
  174. Default                                  : No
  175. Forced                                   : No
  176. Text #11
  177. ID                                       : 13
  178. Format                                   : UTF-8
  179. Codec ID                                 : S_TEXT/UTF8
  180. Codec ID/Info                            : UTF-8 Plain Text
  181. Duration                                 : 1 h 59 min
  182. Bit rate                                 : 39 b/s
  183. Count of elements                        : 1089
  184. Stream size                              : 35.0 KiB (0%)
  185. Language                                 : French
  186. Default                                  : No
  187. Forced                                   : No
  188. Text #12
  189. ID                                       : 14
  190. Format                                   : UTF-8
  191. Codec ID                                 : S_TEXT/UTF8
  192. Codec ID/Info                            : UTF-8 Plain Text
  193. Duration                                 : 1 h 59 min
  194. Bit rate                                 : 67 b/s
  195. Count of elements                        : 1126
  196. Stream size                              : 59.0 KiB (0%)
  197. Language                                 : Hebrew
  198. Default                                  : No
  199. Forced                                   : No
  200. Text #13
  201. ID                                       : 15
  202. Format                                   : UTF-8
  203. Codec ID                                 : S_TEXT/UTF8
  204. Codec ID/Info                            : UTF-8 Plain Text
  205. Duration                                 : 1 h 59 min
  206. Bit rate                                 : 97 b/s
  207. Count of elements                        : 1116
  208. Stream size                              : 85.3 KiB (0%)
  209. Language                                 : Hindi
  210. Default                                  : No
  211. Forced                                   : No
  212. Text #14
  213. ID                                       : 16
  214. Format                                   : UTF-8
  215. Codec ID                                 : S_TEXT/UTF8
  216. Codec ID/Info                            : UTF-8 Plain Text
  217. Duration                                 : 2 h 0 min
  218. Bit rate                                 : 39 b/s
  219. Count of elements                        : 1178
  220. Stream size                              : 34.8 KiB (0%)
  221. Language                                 : Indonesian
  222. Default                                  : No
  223. Forced                                   : No
  224. Text #15
  225. ID                                       : 17
  226. Format                                   : UTF-8
  227. Codec ID                                 : S_TEXT/UTF8
  228. Codec ID/Info                            : UTF-8 Plain Text
  229. Duration                                 : 1 h 59 min
  230. Bit rate                                 : 38 b/s
  231. Count of elements                        : 1109
  232. Stream size                              : 34.2 KiB (0%)
  233. Language                                 : Italian
  234. Default                                  : No
  235. Forced                                   : No
  236. Text #16
  237. ID                                       : 18
  238. Format                                   : UTF-8
  239. Codec ID                                 : S_TEXT/UTF8
  240. Codec ID/Info                            : UTF-8 Plain Text
  241. Duration                                 : 1 h 59 min
  242. Bit rate                                 : 42 b/s
  243. Count of elements                        : 1152
  244. Stream size                              : 37.2 KiB (0%)
  245. Language                                 : Japanese
  246. Default                                  : No
  247. Forced                                   : No
  248. Text #17
  249. ID                                       : 19
  250. Format                                   : UTF-8
  251. Codec ID                                 : S_TEXT/UTF8
  252. Codec ID/Info                            : UTF-8 Plain Text
  253. Duration                                 : 1 h 59 min
  254. Bit rate                                 : 33 b/s
  255. Count of elements                        : 919
  256. Stream size                              : 29.4 KiB (0%)
  257. Language                                 : Korean
  258. Default                                  : No
  259. Forced                                   : No
  260. Text #18
  261. ID                                       : 20
  262. Format                                   : UTF-8
  263. Codec ID                                 : S_TEXT/UTF8
  264. Codec ID/Info                            : UTF-8 Plain Text
  265. Duration                                 : 1 h 59 min
  266. Bit rate                                 : 71 b/s
  267. Count of elements                        : 1808
  268. Stream size                              : 62.8 KiB (0%)
  269. Title                                    : SDH
  270. Language                                 : Korean
  271. Default                                  : No
  272. Forced                                   : No
  273. Text #19
  274. ID                                       : 21
  275. Format                                   : UTF-8
  276. Codec ID                                 : S_TEXT/UTF8
  277. Codec ID/Info                            : UTF-8 Plain Text
  278. Duration                                 : 1 h 59 min
  279. Bit rate                                 : 37 b/s
  280. Count of elements                        : 1060
  281. Stream size                              : 32.7 KiB (0%)
  282. Language                                 : Norwegian Bokmal
  283. Default                                  : No
  284. Forced                                   : No
  285. Text #20
  286. ID                                       : 22
  287. Format                                   : UTF-8
  288. Codec ID                                 : S_TEXT/UTF8
  289. Codec ID/Info                            : UTF-8 Plain Text
  290. Duration                                 : 1 h 59 min
  291. Bit rate                                 : 37 b/s
  292. Count of elements                        : 978
  293. Stream size                              : 33.1 KiB (0%)
  294. Language                                 : Dutch
  295. Default                                  : No
  296. Forced                                   : No
  297. Text #21
  298. ID                                       : 23
  299. Format                                   : UTF-8
  300. Codec ID                                 : S_TEXT/UTF8
  301. Codec ID/Info                            : UTF-8 Plain Text
  302. Duration                                 : 1 h 59 min
  303. Bit rate                                 : 36 b/s
  304. Count of elements                        : 1104
  305. Stream size                              : 32.2 KiB (0%)
  306. Language                                 : Polish
  307. Default                                  : No
  308. Forced                                   : No
  309. Text #22
  310. ID                                       : 24
  311. Format                                   : UTF-8
  312. Codec ID                                 : S_TEXT/UTF8
  313. Codec ID/Info                            : UTF-8 Plain Text
  314. Duration                                 : 1 h 59 min
  315. Bit rate                                 : 42 b/s
  316. Count of elements                        : 1122
  317. Stream size                              : 37.5 KiB (0%)
  318. Language                                 : Portuguese
  319. Default                                  : No
  320. Forced                                   : No
  321. Text #23
  322. ID                                       : 25
  323. Format                                   : UTF-8
  324. Codec ID                                 : S_TEXT/UTF8
  325. Codec ID/Info                            : UTF-8 Plain Text
  326. Duration                                 : 1 h 59 min
  327. Bit rate                                 : 39 b/s
  328. Count of elements                        : 1119
  329. Stream size                              : 34.8 KiB (0%)
  330. Title                                    : Brazilian
  331. Language                                 : Portuguese
  332. Default                                  : No
  333. Forced                                   : No
  334. Text #24
  335. ID                                       : 26
  336. Format                                   : UTF-8
  337. Codec ID                                 : S_TEXT/UTF8
  338. Codec ID/Info                            : UTF-8 Plain Text
  339. Duration                                 : 1 h 59 min
  340. Bit rate                                 : 39 b/s
  341. Count of elements                        : 1125
  342. Stream size                              : 35.1 KiB (0%)
  343. Language                                 : Romanian
  344. Default                                  : No
  345. Forced                                   : No
  346. Text #25
  347. ID                                       : 27
  348. Format                                   : UTF-8
  349. Codec ID                                 : S_TEXT/UTF8
  350. Codec ID/Info                            : UTF-8 Plain Text
  351. Duration                                 : 1 h 59 min
  352. Bit rate                                 : 63 b/s
  353. Count of elements                        : 1117
  354. Stream size                              : 55.7 KiB (0%)
  355. Language                                 : Russian
  356. Default                                  : No
  357. Forced                                   : No
  358. Text #26
  359. ID                                       : 28
  360. Format                                   : UTF-8
  361. Codec ID                                 : S_TEXT/UTF8
  362. Codec ID/Info                            : UTF-8 Plain Text
  363. Duration                                 : 1 h 59 min
  364. Bit rate                                 : 37 b/s
  365. Count of elements                        : 1074
  366. Stream size                              : 32.6 KiB (0%)
  367. Language                                 : Swedish
  368. Default                                  : No
  369. Forced                                   : No
  370. Text #27
  371. ID                                       : 29
  372. Format                                   : UTF-8
  373. Codec ID                                 : S_TEXT/UTF8
  374. Codec ID/Info                            : UTF-8 Plain Text
  375. Duration                                 : 1 h 59 min
  376. Bit rate                                 : 102 b/s
  377. Count of elements                        : 1137
  378. Stream size                              : 90.3 KiB (0%)
  379. Language                                 : Thai
  380. Default                                  : No
  381. Forced                                   : No
  382. Text #28
  383. ID                                       : 30
  384. Format                                   : UTF-8
  385. Codec ID                                 : S_TEXT/UTF8
  386. Codec ID/Info                            : UTF-8 Plain Text
  387. Duration                                 : 1 h 59 min
  388. Bit rate                                 : 41 b/s
  389. Count of elements                        : 1134
  390. Stream size                              : 36.0 KiB (0%)
  391. Language                                 : Turkish
  392. Default                                  : No
  393. Forced                                   : No
  394. Text #29
  395. ID                                       : 31
  396. Format                                   : UTF-8
  397. Codec ID                                 : S_TEXT/UTF8
  398. Codec ID/Info                            : UTF-8 Plain Text
  399. Duration                                 : 1 h 59 min
  400. Bit rate                                 : 48 b/s
  401. Count of elements                        : 1128
  402. Stream size                              : 42.8 KiB (0%)
  403. Language                                 : Vietnamese
  404. Default                                  : No
  405. Forced                                   : No
  406. Text #30
  407. ID                                       : 32
  408. Format                                   : UTF-8
  409. Codec ID                                 : S_TEXT/UTF8
  410. Codec ID/Info                            : UTF-8 Plain Text
  411. Duration                                 : 1 h 59 min
  412. Bit rate                                 : 37 b/s
  413. Count of elements                        : 1144
  414. Stream size                              : 32.9 KiB (0%)
  415. Title                                    : Simplified
  416. Language                                 : Chinese
  417. Default                                  : No
  418. Forced                                   : No
  419. Text #31
  420. ID                                       : 33
  421. Format                                   : UTF-8
  422. Codec ID                                 : S_TEXT/UTF8
  423. Codec ID/Info                            : UTF-8 Plain Text
  424. Duration                                 : 1 h 59 min
  425. Bit rate                                 : 32 b/s
  426. Count of elements                        : 1147
  427. Stream size                              : 28.5 KiB (0%)
  428. Title                                    : Traditional
  429. Language                                 : Chinese
  430. Default                                  : No
  431. Forced                                   : No
复制代码






                                       
                                       

                                       
                                       
                                       




回复

使用道具 举报

懒得打字嘛,点击右侧快捷回复 【右侧内容,后台自定义】
您需要登录后才可以回帖 登录 | 立即加入

本版积分规则

Archiver|小黑屋| 蓝光电影网 |网站地图

Copyright © 2021 Comsenz Inc. Powered by 蓝光电影网

蓝光电影网

本站内容由用户自主分享和转载自互联网,转载目的在于传递更多信息,并不代表本网赞同其观点和对其真实性负责。

如有侵权、违反国家法律政策行为,请联系我们,我们会第一时间及时清除和处理!

举报反馈邮箱:[email protected]

快速回复 返回顶部 返回列表