找回密码

蓝光电影网

查看: 16|回复: 0

[剧情] 帕西和洛蕾塔 Patsy.and.Loretta.2019.1080p.WEBRip.DD5.1.x264-NOGRP 3.05GB

[复制链接]
蓝光币
382
发表于 2021-8-20 00:42:21 | 显示全部楼层 |阅读模式


◎译  名 帕西和洛蕾塔
◎片  名 Patsy & Loretta
◎年  代 2019
◎产  地 美国
◎类  别 剧情
◎语  言 英语
◎IMDb评分  6.8/10 from 367 users
◎IMDb链接  https://www.imdb.com/title/tt10016704
◎豆瓣评分 0/10 from 0 users
◎豆瓣链接 https://movie.douban.com/subject/33400919/
◎导  演 卡莉·克里 Callie Khouri
◎编  剧 Angelina Burnett
◎主  演 梅根·希尔提 Megan Hilty
       简宁·特纳 Janine Turner
       乔·蒂皮特 Joe Tippett
       简·麦克尼尔 Jane McNeill
       凯尔·施密德 Kyle Schmid
       杰茜·缪勒 Jessie Mueller
       比利·斯洛特 Billy Slaughter
       Jeremy Childs
       贾斯蒂斯·利克 Justice Leak
       Emily Conley
       Garrett Kruithof
       露西·卡罗尔 Lucie Carroll
       Robert Way

◎标  签 情色 | 电影 | 一流
◎简  介

  
  这部电影报告村落音乐明星Patsy Cline和Loretta Lynn之间的友谊。
◎获奖情况  
  第7届美国化装及发型设想工会奖(2020)
  电视电影/出格节目类最好年月戏化装(提名)
  电视电影/出格节目类最好年月戏发型设想(提名)
  第10届美国批评家挑选电视奖(2020)
  最好电视电影(提名)
  电视电影/限制剧最好女配角(提名) 梅根·希尔提 / 杰茜·缪勒
  1. Video
  2. ID                                       : 1
  3. Format                                   : AVC
  4. Format/Info                              : Advanced Video Codec
  5. Format profile                           : [email protected]
  6. Format settings                          : CABAC / 3 Ref Frames
  7. Format settings, CABAC                   : Yes
  8. Format settings, Reference frames        : 3 frames
  9. Format settings, GOP                     : M=3, N=50
  10. Codec ID                                 : V_MPEG4/ISO/AVC
  11. Duration                                 : 1 h 23 min
  12. Bit rate mode                            : Variable
  13. Bit rate                                 : 4 808 kb/s
  14. Maximum bit rate                         : 7 200 kb/s
  15. Width                                    : 1 920 pixels
  16. Height                                   : 1 080 pixels
  17. Display aspect ratio                     : 16:9
  18. Frame rate mode                          : Constant
  19. Frame rate                               : 25.000 FPS
  20. Color space                              : YUV
  21. Chroma subsampling                       : 4:2:0
  22. Bit depth                                : 8 bits
  23. Scan type                                : Progressive
  24. Bits/(Pixel*Frame)                       : 0.093
  25. Stream size                              : 2.82 GiB (93%)
  26. Default                                  : Yes
  27. Forced                                   : No
  28. Audio
  29. ID                                       : 2
  30. Format                                   : AC-3
  31. Format/Info                              : Audio Coding 3
  32. Commercial name                          : Dolby Digital
  33. Codec ID                                 : A_AC3
  34. Duration                                 : 1 h 23 min
  35. Bit rate mode                            : Constant
  36. Bit rate                                 : 384 kb/s
  37. Channel(s)                               : 6 channels
  38. Channel layout                           : L R C LFE Ls Rs
  39. Sampling rate                            : 48.0 kHz
  40. Frame rate                               : 31.250 FPS (1536 SPF)
  41. Bit depth                                : 16 bits
  42. Compression mode                         : Lossy
  43. Stream size                              : 231 MiB (7%)
  44. Title                                    : English
  45. Language                                 : English
  46. Service kind                             : Complete Main
  47. Default                                  : Yes
  48. Forced                                   : No
  49. Text #1
  50. ID                                       : 3
  51. Format                                   : UTF-8
  52. Codec ID                                 : S_TEXT/UTF8
  53. Codec ID/Info                            : UTF-8 Plain Text
  54. Duration                                 : 1 h 22 min
  55. Bit rate                                 : 83 b/s
  56. Count of elements                        : 1586
  57. Stream size                              : 50.2 KiB (0%)
  58. Language                                 : English
  59. Default                                  : No
  60. Forced                                   : No
  61. Text #2
  62. ID                                       : 4
  63. Format                                   : UTF-8
  64. Codec ID                                 : S_TEXT/UTF8
  65. Codec ID/Info                            : UTF-8 Plain Text
  66. Duration                                 : 1 h 23 min
  67. Bit rate                                 : 48 b/s
  68. Count of elements                        : 844
  69. Stream size                              : 29.9 KiB (0%)
  70. Title                                    : Danish
  71. Language                                 : Danish
  72. Default                                  : Yes
  73. Forced                                   : No
  74. Text #3
  75. ID                                       : 5
  76. Format                                   : UTF-8
  77. Codec ID                                 : S_TEXT/UTF8
  78. Codec ID/Info                            : UTF-8 Plain Text
  79. Duration                                 : 1 h 23 min
  80. Bit rate                                 : 47 b/s
  81. Count of elements                        : 1192
  82. Stream size                              : 29.2 KiB (0%)
  83. Title                                    : Finnish
  84. Language                                 : Finnish
  85. Default                                  : No
  86. Forced                                   : No
  87. Text #4
  88. ID                                       : 6
  89. Format                                   : UTF-8
  90. Codec ID                                 : S_TEXT/UTF8
  91. Codec ID/Info                            : UTF-8 Plain Text
  92. Duration                                 : 1 h 23 min
  93. Bit rate                                 : 50 b/s
  94. Count of elements                        : 1008
  95. Stream size                              : 30.8 KiB (0%)
  96. Title                                    : Norwegian
  97. Language                                 : Norwegian
  98. Default                                  : No
  99. Forced                                   : No
  100. Text #5
  101. ID                                       : 7
  102. Format                                   : UTF-8
  103. Codec ID                                 : S_TEXT/UTF8
  104. Codec ID/Info                            : UTF-8 Plain Text
  105. Duration                                 : 1 h 23 min
  106. Bit rate                                 : 59 b/s
  107. Count of elements                        : 1002
  108. Stream size                              : 36.3 KiB (0%)
  109. Title                                    : Swedish
  110. Language                                 : Swedish
  111. Default                                  : No
  112. Forced                                   : No
复制代码





                                       
                                       

                                       
                                       
                                       




回复

使用道具 举报

懒得打字嘛,点击右侧快捷回复 【右侧内容,后台自定义】
您需要登录后才可以回帖 登录 | 立即加入

本版积分规则

Archiver|小黑屋| 蓝光电影网 |网站地图

Copyright © 2021 Comsenz Inc. Powered by 蓝光电影网

蓝光电影网

本站内容由用户自主分享和转载自互联网,转载目的在于传递更多信息,并不代表本网赞同其观点和对其真实性负责。

如有侵权、违反国家法律政策行为,请联系我们,我们会第一时间及时清除和处理!

举报反馈邮箱:[email protected]

快速回复 返回顶部 返回列表