找回密码

蓝光电影网

查看: 17|回复: 0

[剧情] 拉拢 Roped.2020.1080p.NF.WEBRip.DDP5.1.x264-NOGRP 3.18GB

[复制链接]
蓝光币
386
发表于 2021-8-20 00:42:24 | 显示全部楼层 |阅读模式


◎译  名 撮合
◎片  名 Roped
◎年  代 2020
◎产  地 美国
◎类  别 剧情 / 恋爱
◎语  言 英语
◎上映日期 2020-05-02(美国)
◎IMDb评分  5.3/10 from 589 users
◎IMDb链接  https://www.imdb.com/title/tt8523028
◎豆瓣评分 0/10 from 0 users
◎豆瓣链接 https://movie.douban.com/subject/35056465/
◎片  长 91分钟
◎导  演 Shaun Paul Piccinino
◎编  剧 约翰·杜西 John Ducey
◎主  演 Josh Swickard
       卡斯帕·凡·迪恩 Casper Van Dien
       罗琳·约克 Lorynn York
       克里斯蒂娜·摩尔 Christina Moore
       约翰·施奈德 John Schneider
       Michael Roark
       谢恩·格雷厄姆 Shane Graham
       Cooper Lundeen
       贾维西亚·莱斯利 Javicia Leslie
       斯宾瑟·内维尔 Spencer Neville
       杰伊·艾伦·克里斯蒂安森 Jay Alan Christianson
       Mathew Lipisko
       威廉·W·巴伯 William W. Barbour
       Christine Elliott
       Vivian McCall
       John Demakas
       迈克尔·J·格温 Michael J. Gwynn
       托尼·托斯特 Tony Toste

◎简  介

  
  A progressive town erupts when a traveling rodeo lands within a it's city limits. The town councilman butts head with a young cowboy on his rise to super stardom. When the councilman's daughter falls in love with the cowboy their battle becomes deeply personal.
  1. Video
  2. ID                                       : 1
  3. Format                                   : AVC
  4. Format/Info                              : Advanced Video Codec
  5. Format profile                           : [email protected]
  6. Format settings                          : CABAC / 3 Ref Frames
  7. Format settings, CABAC                   : Yes
  8. Format settings, Reference frames        : 3 frames
  9. Codec ID                                 : V_MPEG4/ISO/AVC
  10. Duration                                 : 1 h 30 min
  11. Bit rate mode                            : Variable
  12. Bit rate                                 : 4 420 kb/s
  13. Maximum bit rate                         : 6 630 kb/s
  14. Width                                    : 1 920 pixels
  15. Height                                   : 1 080 pixels
  16. Display aspect ratio                     : 16:9
  17. Frame rate mode                          : Constant
  18. Frame rate                               : 23.976 (24000/1001/189150) FPS
  19. Color space                              : YUV
  20. Chroma subsampling                       : 4:2:0
  21. Bit depth                                : 8 bits
  22. Scan type                                : Progressive
  23. Bits/(Pixel*Frame)                       : 0.089
  24. Stream size                              : 2.78 GiB (87%)
  25. Writing library                          : x264 core 148 r2717 0d2410d
  26. Encoding settings                        : cabac=1 / ref=3 / deblock=1:0:0 / analyse=0x1:0x111 / me=umh / subme=10 / psy=1 / psy_rd=1.00:0.00 / mixed_ref=1 / me_range=24 / chroma_me=1 / trellis=2 / 8x8dct=0 / cqm=0 / deadzone=21,11 / fast_pskip=1 / chroma_qp_offset=-2 / threads=6 / lookahead_threads=1 / sliced_threads=0 / nr=0 / decimate=1 / interlaced=0 / bluray_compat=0 / stitchable=1 / constrained_intra=0 / bframes=2 / b_pyramid=0 / b_adapt=2 / b_bias=0 / direct=3 / weightb=1 / open_gop=0 / weightp=2 / keyint=250 / keyint_min=23 / scenecut=0 / intra_refresh=0 / rc_lookahead=48 / rc=2pass / mbtree=1 / bitrate=4420 / ratetol=1.0 / qcomp=0.50 / qpmin=6 / qpmax=51 / qpstep=4 / cplxblur=20.0 / qblur=0.5 / vbv_maxrate=6630 / vbv_bufsize=8840 / nal_hrd=vbr / filler=0 / ip_ratio=1.40 / aq=1:1.00
  27. Default                                  : Yes
  28. Forced                                   : No
  29. Audio
  30. ID                                       : 2
  31. Format                                   : E-AC-3
  32. Format/Info                              : Enhanced AC-3
  33. Commercial name                          : Dolby Digital Plus
  34. Codec ID                                 : A_EAC3
  35. Duration                                 : 1 h 30 min
  36. Bit rate mode                            : Constant
  37. Bit rate                                 : 640 kb/s
  38. Channel(s)                               : 6 channels
  39. Channel layout                           : L R C LFE Ls Rs
  40. Sampling rate                            : 48.0 kHz
  41. Frame rate                               : 31.250 FPS (1536 SPF)
  42. Compression mode                         : Lossy
  43. Stream size                              : 413 MiB (13%)
  44. Language                                 : English
  45. Service kind                             : Complete Main
  46. Default                                  : Yes
  47. Forced                                   : No
  48. Text
  49. ID                                       : 3
  50. Format                                   : UTF-8
  51. Codec ID                                 : S_TEXT/UTF8
  52. Codec ID/Info                            : UTF-8 Plain Text
  53. Duration                                 : 1 h 27 min
  54. Bit rate                                 : 72 b/s
  55. Count of elements                        : 1640
  56. Stream size                              : 46.3 KiB (0%)
  57. Language                                 : English
  58. Default                                  : Yes
  59. Forced                                   : No
复制代码






                                       
                                       

                                       
                                       
                                       




回复

使用道具 举报

懒得打字嘛,点击右侧快捷回复 【右侧内容,后台自定义】
您需要登录后才可以回帖 登录 | 立即加入

本版积分规则

Archiver|小黑屋| 蓝光电影网 |网站地图

Copyright © 2021 Comsenz Inc. Powered by 蓝光电影网

蓝光电影网

本站内容由用户自主分享和转载自互联网,转载目的在于传递更多信息,并不代表本网赞同其观点和对其真实性负责。

如有侵权、违反国家法律政策行为,请联系我们,我们会第一时间及时清除和处理!

举报反馈邮箱:[email protected]

快速回复 返回顶部 返回列表