找回密码

蓝光电影网

查看: 17|回复: 0

[剧情] 我从未有过的梦/美夢待續 Dreams.I.Never.Had.2017.1080p.AMZN.WEBRip.DD5.1.x264-NOGRP 3.94GB

[复制链接]
蓝光币
426
发表于 2021-8-20 00:42:27 | 显示全部楼层 |阅读模式


◎译  名 我从未有过的梦 / 美夢待續(台)
◎片  名 Dreams I Never Had
◎年  代 2018
◎产  地 美国
◎类  别 剧情
◎语  言 英语
◎上映日期 2018-04-01(美国)
◎IMDb评分  6.4/10 from 82 users
◎IMDb链接  https://www.imdb.com/title/tt5478918
◎豆瓣评分 0/10 from 0 users
◎豆瓣链接 https://movie.douban.com/subject/30393507/
◎导  演 Iyad Hajjaj / Mahmoud Kamel
◎编  剧 Iyad Hajjaj / Lisa Jan Savy
◎主  演 马尔科姆·麦克道威尔 Malcolm McDowell
       Iyad Hajjaj
       Robin Givens
       See full cast & crew

◎标  签 美国
◎简  介

  
  少女莱拉从贫苦的原生家庭被带至美国,在一个敷裕的家庭处置几近奴役的工作,她受抵家中的不法移工园丁艾密力欧的激励,两小我相知相惜,决心为自己的人生罢休一搏。
  1. Video
  2. ID                                       : 1
  3. Format                                   : AVC
  4. Format/Info                              : Advanced Video Codec
  5. Format profile                           : [email protected]
  6. Format settings                          : CABAC / 4 Ref Frames
  7. Format settings, CABAC                   : Yes
  8. Format settings, Reference frames        : 4 frames
  9. Codec ID                                 : V_MPEG4/ISO/AVC
  10. Duration                                 : 1 h 15 min
  11. Bit rate mode                            : Constant
  12. Bit rate                                 : 7 068 kb/s
  13. Nominal bit rate                         : 10 000 kb/s
  14. Width                                    : 1 920 pixels
  15. Height                                   : 800 pixels
  16. Display aspect ratio                     : 2.40:1
  17. Frame rate mode                          : Constant
  18. Frame rate                               : 23.976 (24000/1001/189150) FPS
  19. Color space                              : YUV
  20. Chroma subsampling                       : 4:2:0
  21. Bit depth                                : 8 bits
  22. Scan type                                : Progressive
  23. Bits/(Pixel*Frame)                       : 0.192
  24. Stream size                              : 3.74 GiB (95%)
  25. Language                                 : English
  26. Default                                  : Yes
  27. Forced                                   : No
  28. Color range                              : Limited
  29. Color primaries                          : BT.709
  30. Transfer characteristics                 : BT.709
  31. Matrix coefficients                      : BT.709
  32. Audio
  33. ID                                       : 2
  34. Format                                   : AC-3
  35. Format/Info                              : Audio Coding 3
  36. Commercial name                          : Dolby Digital
  37. Codec ID                                 : A_AC3
  38. Duration                                 : 1 h 15 min
  39. Bit rate mode                            : Constant
  40. Bit rate                                 : 384 kb/s
  41. Channel(s)                               : 6 channels
  42. Channel layout                           : L R C LFE Ls Rs
  43. Sampling rate                            : 48.0 kHz
  44. Frame rate                               : 31.250 FPS (1536 SPF)
  45. Bit depth                                : 16 bits
  46. Compression mode                         : Lossy
  47. Stream size                              : 208 MiB (5%)
  48. Language                                 : English
  49. Service kind                             : Complete Main
  50. Default                                  : Yes
  51. Forced                                   : No
  52. Text
  53. ID                                       : 3
  54. Format                                   : UTF-8
  55. Codec ID                                 : S_TEXT/UTF8
  56. Codec ID/Info                            : UTF-8 Plain Text
  57. Duration                                 : 1 h 15 min
  58. Bit rate                                 : 55 b/s
  59. Count of elements                        : 1132
  60. Stream size                              : 30.8 KiB (0%)
  61. Title                                    : SDH
  62. Language                                 : English
  63. Default                                  : Yes
  64. Forced                                   : No
  65. Menu
  66. 00:00:00.000                             : en:1
  67. 00:11:11.087                             : en:2
  68. 00:21:35.127                             : en:3
  69. 00:31:37.938                             : en:4
  70. 00:42:14.199                             : en:5
  71. 00:54:47.911                             : en:6
  72. 01:03:58.418                             : en:7
  73. 01:14:13.657                             : en:8
复制代码






                                       
                                       

                                       
                                       
                                       




回复

使用道具 举报

懒得打字嘛,点击右侧快捷回复 【右侧内容,后台自定义】
您需要登录后才可以回帖 登录 | 立即加入

本版积分规则

Archiver|小黑屋| 蓝光电影网 |网站地图

Copyright © 2021 Comsenz Inc. Powered by 蓝光电影网

蓝光电影网

本站内容由用户自主分享和转载自互联网,转载目的在于传递更多信息,并不代表本网赞同其观点和对其真实性负责。

如有侵权、违反国家法律政策行为,请联系我们,我们会第一时间及时清除和处理!

举报反馈邮箱:[email protected]

快速回复 返回顶部 返回列表