找回密码

蓝光电影网

查看: 6|回复: 0

[剧情] 森林灰烬 Ash.2019.1080p.WEB-DL.DD5.1.H264-FGT 3.61GB

[复制链接]
蓝光币
382
发表于 2021-8-20 00:42:39 | 显示全部楼层 |阅读模式


◎译  名 森林灰烬
◎片  名 Ash
◎年  代 2019
◎产  地 加拿大
◎类  别 剧情
◎语  言 英语
◎IMDb评分  7.3/10 from 110 users
◎IMDb链接  https://www.imdb.com/title/tt5515328
◎豆瓣评分 0/10 from 0 users
◎豆瓣链接 https://movie.douban.com/subject/34793833/
◎片  长 104分钟
◎导  演 Andrew Huculiak
◎编  剧 Andrew Huculiak
◎主  演 谢拉赫·霍斯达尔 Chelah Horsdal
       蒂姆·金尼 Tim Guinee
       Raresh DiMofte
       杰西·弗雷泽 Jessie Fraser
       斯蒂芬·罗波 Stephen Lobo
       贝弗利·埃略特 Beverley Elliott
       埃里克·李塞德 Eric Keenleyside
       Leo Fafard

◎简  介

  
  A reporter is accused of a crime involving a forest fire that threatens his small town.
  1. Video
  2. ID                                       : 1
  3. Format                                   : AVC
  4. Format/Info                              : Advanced Video Codec
  5. Format profile                           : [email protected]
  6. Format settings                          : CABAC / 5 Ref Frames
  7. Format settings, CABAC                   : Yes
  8. Format settings, Reference frames        : 5 frames
  9. Codec ID                                 : V_MPEG4/ISO/AVC
  10. Duration                                 : 1 h 44 min
  11. Bit rate                                 : 4 572 kb/s
  12. Width                                    : 1 920 pixels
  13. Height                                   : 804 pixels
  14. Display aspect ratio                     : 2.40:1
  15. Frame rate mode                          : Constant
  16. Frame rate                               : 23.976 FPS
  17. Color space                              : YUV
  18. Chroma subsampling                       : 4:2:0
  19. Bit depth                                : 8 bits
  20. Scan type                                : Progressive
  21. Bits/(Pixel*Frame)                       : 0.124
  22. Stream size                              : 3.33 GiB (92%)
  23. Title                                    : Ash.2019.1080p.WEB-DL.DD5.1.H264-FGT
  24. Language                                 : English
  25. Default                                  : Yes
  26. Forced                                   : No
  27. Color range                              : Limited
  28. Color primaries                          : BT.709
  29. Transfer characteristics                 : BT.709
  30. Matrix coefficients                      : BT.709
  31. Audio
  32. ID                                       : 2
  33. Format                                   : AC-3
  34. Format/Info                              : Audio Coding 3
  35. Commercial name                          : Dolby Digital
  36. Codec ID                                 : A_AC3
  37. Duration                                 : 1 h 44 min
  38. Bit rate mode                            : Constant
  39. Bit rate                                 : 384 kb/s
  40. Channel(s)                               : 6 channels
  41. Channel layout                           : L R C LFE Ls Rs
  42. Sampling rate                            : 48.0 kHz
  43. Frame rate                               : 31.250 FPS (1536 SPF)
  44. Bit depth                                : 16 bits
  45. Compression mode                         : Lossy
  46. Stream size                              : 286 MiB (8%)
  47. Title                                    : Ash.2019.1080p.WEB-DL.DD5.1.H264-FGT
  48. Language                                 : English
  49. Service kind                             : Complete Main
  50. Default                                  : Yes
  51. Forced                                   : No
  52. Menu
  53. 00:00:00.000                             : en:Chapter 1
  54. 00:07:28.823                             : en:Chapter 2
  55. 00:17:41.976                             : en:Chapter 3
  56. 00:26:09.858                             : en:Chapter 4
  57. 00:34:50.003                             : en:Chapter 5
  58. 00:44:03.014                             : en:Chapter 6
  59. 00:55:18.563                             : en:Chapter 7
  60. 01:06:04.041                             : en:Chapter 8
  61. 01:18:41.590                             : en:Chapter 9
  62. 01:27:53.099                             : en:Chapter 10
  63. 01:38:34.907                             : en:Chapter 11
复制代码






                                       
                                       

                                       
                                       
                                       




回复

使用道具 举报

懒得打字嘛,点击右侧快捷回复 【右侧内容,后台自定义】
您需要登录后才可以回帖 登录 | 立即加入

本版积分规则

Archiver|小黑屋| 蓝光电影网 |网站地图

Copyright © 2021 Comsenz Inc. Powered by 蓝光电影网

蓝光电影网

本站内容由用户自主分享和转载自互联网,转载目的在于传递更多信息,并不代表本网赞同其观点和对其真实性负责。

如有侵权、违反国家法律政策行为,请联系我们,我们会第一时间及时清除和处理!

举报反馈邮箱:[email protected]

快速回复 返回顶部 返回列表