找回密码

蓝光电影网

查看: 12|回复: 0

[剧情] 伯德街小岛/伯德街上的孤岛 The.Island.on.Bird.Street.1997.1080p.WEBRip.x264-RARBG 2.05GB

[复制链接]
蓝光币
426
发表于 2021-8-20 00:43:08 | 显示全部楼层 |阅读模式


◎译  名 伯德街小岛 / 伯德街上的孤岛 / 来自天堂的冠军
◎片  名 The Island on Bird Street
◎年  代 1997
◎产  地 丹麦 / 英国 / 德国
◎类  别 剧情 / 战争
◎语  言 英语 / 德语 / 拉丁语
◎上映日期 2001-03-18
◎IMDb链接  http://www.imdb.com/title/tt0119389/
◎豆瓣评分 8.5/10 from 687 users
◎豆瓣链接 https://movie.douban.com/subject/1937822/
◎片  长 103分钟
◎导  演 索伦·克拉格·雅格布森 S?ren Kragh-Jacobsen
◎编  剧 约翰·金史姑娘 John Goldsmith / 托尼·格里索尼 Tony Grisoni
◎主  演 西蒙·格雷格 Simon Gregor
       乔丹·基兹克 Jordan Kiziuk
       帕特里克·博金 Patrick Bergin
       詹姆斯·伯拉姆 James Bolam

◎标  签 二战 | 丹麦 | 战争 | 伯德街小岛 | 丹麦电影 | 童年 | 保存 | 儿童
◎简  介

  
  第二次天下大战时代,在一个用高墙围起来的犹太区的烧毁大工场里,里面的犹太人坐卧不安的生活和工作着,而且人数越来越少,由于纳粹时不时的就会进来把一些人带走,先是妇女儿童,再是老人,后来就要全数带走了,他们的了局不可思议。在一次剿灭中,一位父亲想让他的父亲和儿子逃命,就预备和纳粹拼命,可是由于有人告发,失利了,这时那位祖父为了让孙子活命,义无返顾的占了出来,他的小孙子临时躲过了灾难,躲了起来,那位祖父留下的就只要大街上的一顶帽子了。
  阿谁小男孩深信他的父亲会返来找他,他苦守在阿谁烧毁的工场里,陪伴他的只要一支小白鼠。人到了保存的极限就会爆发出不成设想的才能和聪明。我看片时,一向为阿谁小男孩揪着心,没有吃的,没有水,还要躲避纳粹和残剩侥幸躲起来的犹太报酬保存而动的杀机。可是他挺过来了,甚至像鲁宾逊一样,有了一个自己的“树屋”,在阿谁高高的角落里,他透过一个小小的窗棂,一个千里镜里观察着里面“平和”的天下……
◎获奖情况  
  第47届柏林国际电影节(1997)
  金熊奖 最好影片(提名) 索伦·克拉格·雅格布森
  银熊奖 精采成就 泽贝纽·普瑞斯纳
  出格说起 乔丹·基兹克
  1. Video
  2. ID                                       : 1
  3. Format                                   : AVC
  4. Format/Info                              : Advanced Video Codec
  5. Format profile                           : [email protected]
  6. Format settings                          : CABAC / 4 Ref Frames
  7. Format settings, CABAC                   : Yes
  8. Format settings, Reference frames        : 4 frames
  9. Codec ID                                 : avc1
  10. Codec ID/Info                            : Advanced Video Coding
  11. Duration                                 : 1 h 47 min
  12. Bit rate                                 : 2 500 kb/s
  13. Width                                    : 1 920 pixels
  14. Height                                   : 1 040 pixels
  15. Display aspect ratio                     : 1.85:1
  16. Frame rate mode                          : Constant
  17. Frame rate                               : 23.976 (23976/1000/189150) FPS
  18. Color space                              : YUV
  19. Chroma subsampling                       : 4:2:0
  20. Bit depth                                : 8 bits
  21. Scan type                                : Progressive
  22. Bits/(Pixel*Frame)                       : 0.052
  23. Stream size                              : 1.88 GiB (92%)
  24. Writing library                          : x264 core 152 r2851M ba24899
  25. Encoding settings                        : cabac=1 / ref=4 / deblock=1:-1:-1 / analyse=0x3:0x113 / me=umh / subme=9 / psy=1 / psy_rd=1.00:0.15 / mixed_ref=1 / me_range=24 / chroma_me=1 / trellis=2 / 8x8dct=1 / cqm=0 / deadzone=21,11 / fast_pskip=1 / chroma_qp_offset=-3 / threads=16 / lookahead_threads=4 / sliced_threads=0 / nr=0 / decimate=1 / interlaced=0 / bluray_compat=0 / constrained_intra=0 / bframes=3 / b_pyramid=2 / b_adapt=2 / b_bias=0 / direct=3 / weightb=1 / open_gop=0 / weightp=2 / keyint=250 / keyint_min=25 / scenecut=40 / intra_refresh=0 / rc_lookahead=50 / rc=2pass / mbtree=1 / bitrate=2500 / ratetol=1.0 / qcomp=0.60 / qpmin=0 / qpmax=69 / qpstep=4 / cplxblur=20.0 / qblur=0.5 / vbv_maxrate=31250 / vbv_bufsize=31250 / nal_hrd=none / filler=0 / ip_ratio=1.40 / aq=3:1.00
  26. Encoded date                             : UTC 2020-08-06 23:30:53
  27. Tagged date                              : UTC 2020-08-06 23:30:53
  28. Codec configuration box                  : avcC
  29. Audio
  30. ID                                       : 2
  31. Format                                   : AAC LC
  32. Format/Info                              : Advanced Audio Codec Low Complexity
  33. Codec ID                                 : mp4a-40-2
  34. Duration                                 : 1 h 47 min
  35. Bit rate mode                            : Constant
  36. Bit rate                                 : 224 kb/s
  37. Channel(s)                               : 2 channels
  38. Channel layout                           : L R
  39. Sampling rate                            : 48.0 kHz
  40. Frame rate                               : 46.875 FPS (1024 SPF)
  41. Compression mode                         : Lossy
  42. Stream size                              : 172 MiB (8%)
  43. Language                                 : English
  44. Default                                  : Yes
  45. Alternate group                          : 1
  46. Encoded date                             : UTC 2020-08-06 23:30:53
  47. Tagged date                              : UTC 2020-08-06 23:30:53
复制代码





                                       
                                       

                                       
                                       
                                       




回复

使用道具 举报

懒得打字嘛,点击右侧快捷回复 【右侧内容,后台自定义】
您需要登录后才可以回帖 登录 | 立即加入

本版积分规则

Archiver|小黑屋| 蓝光电影网 |网站地图

Copyright © 2021 Comsenz Inc. Powered by 蓝光电影网

蓝光电影网

本站内容由用户自主分享和转载自互联网,转载目的在于传递更多信息,并不代表本网赞同其观点和对其真实性负责。

如有侵权、违反国家法律政策行为,请联系我们,我们会第一时间及时清除和处理!

举报反馈邮箱:[email protected]

快速回复 返回顶部 返回列表