找回密码

蓝光电影网

查看: 15|回复: 0

[剧情] 哭泣的女人 La.Llorona.2019.SPANISH.ENSUBBED.1080p.AMZN.WEBRip.DDP2.0.x264-NTG 5.89GB

[复制链接]
蓝光币
382
发表于 2021-8-20 00:43:15 | 显示全部楼层 |阅读模式


◎译  名 抽泣的女人 / The Weeping Woman
◎片  名 La llorona
◎年  代 2019
◎产  地 危地马拉 / 法国
◎类  别 剧情 / 惊悚
◎语  言 西班牙语
◎上映日期 2019-08-30(威尼斯电影节) / 2020-08-06(美国)
◎IMDb评分  6.9/10 from 433 users
◎IMDb链接  https://www.imdb.com/title/tt10767168
◎豆瓣评分 0/10 from 0 users
◎豆瓣链接 https://movie.douban.com/subject/34670334/
◎片  长 97分钟
◎导  演 杰罗·布斯塔曼特 Jayro Bustamante
◎编  剧 杰罗·布斯塔曼特 Jayro Bustamante / Lisandro Sanchez
◎主  演 María Mercedes Coroy
       Sabrina De La Hoz
       Margarita Kenéfic
       Julio Diaz
       María Telón
       Juan Pablo Olyslager
       Ayla-Elea Hurtado
       Pedro Javier Silva Lira

◎标  签 2019 | 危地马拉 | 惊悚 | 美国 | 作者电影 | P-VeniceE威尼斯日奖 | 西语片 | 危地马拉电影
◎简  介

  
  威尼斯电影节威尼斯日单元比赛
◎获奖情况  
  第76届威尼斯电影节(2019)
  欧洲电影同盟奖 威尼斯日最好影片 杰罗·布斯塔曼特
  第32届东京国际电影节(2019)
  主比赛单元 最好影片(提名) 杰罗·布斯塔曼特
  1. Video
  2. ID                                       : 1
  3. Format                                   : AVC
  4. Format/Info                              : Advanced Video Codec
  5. Format profile                           : [email protected]
  6. Format settings                          : CABAC / 4 Ref Frames
  7. Format settings, CABAC                   : Yes
  8. Format settings, Reference frames        : 4 frames
  9. Codec ID                                 : V_MPEG4/ISO/AVC
  10. Duration                                 : 1 h 36 min
  11. Bit rate mode                            : Constant
  12. Bit rate                                 : 8 523 kb/s
  13. Nominal bit rate                         : 10 000 kb/s
  14. Width                                    : 1 920 pixels
  15. Height                                   : 800 pixels
  16. Display aspect ratio                     : 2.40:1
  17. Frame rate mode                          : Constant
  18. Frame rate                               : 24.000 FPS
  19. Color space                              : YUV
  20. Chroma subsampling                       : 4:2:0
  21. Bit depth                                : 8 bits
  22. Scan type                                : Progressive
  23. Bits/(Pixel*Frame)                       : 0.231
  24. Stream size                              : 5.74 GiB (97%)
  25. Default                                  : Yes
  26. Forced                                   : No
  27. Color range                              : Limited
  28. Color primaries                          : BT.709
  29. Transfer characteristics                 : BT.709
  30. Matrix coefficients                      : BT.709
  31. Audio
  32. ID                                       : 2
  33. Format                                   : E-AC-3
  34. Format/Info                              : Enhanced AC-3
  35. Commercial name                          : Dolby Digital Plus
  36. Codec ID                                 : A_EAC3
  37. Duration                                 : 1 h 36 min
  38. Bit rate mode                            : Constant
  39. Bit rate                                 : 224 kb/s
  40. Channel(s)                               : 2 channels
  41. Channel layout                           : L R
  42. Sampling rate                            : 48.0 kHz
  43. Frame rate                               : 31.250 FPS (1536 SPF)
  44. Compression mode                         : Lossy
  45. Stream size                              : 154 MiB (3%)
  46. Language                                 : Spanish
  47. Service kind                             : Complete Main
  48. Default                                  : Yes
  49. Forced                                   : No
复制代码






                                       
                                       

                                       
                                       
                                       




回复

使用道具 举报

懒得打字嘛,点击右侧快捷回复 【右侧内容,后台自定义】
您需要登录后才可以回帖 登录 | 立即加入

本版积分规则

Archiver|小黑屋| 蓝光电影网 |网站地图

Copyright © 2021 Comsenz Inc. Powered by 蓝光电影网

蓝光电影网

本站内容由用户自主分享和转载自互联网,转载目的在于传递更多信息,并不代表本网赞同其观点和对其真实性负责。

如有侵权、违反国家法律政策行为,请联系我们,我们会第一时间及时清除和处理!

举报反馈邮箱:[email protected]

快速回复 返回顶部 返回列表