找回密码

蓝光电影网

查看: 18|回复: 0

[剧情] 该死的上帝 Killing.God.2017.SPANISH.1080p.AMZN.WEBRip.DDP2.0.x264-alfaHD 5.61GB

[复制链接]
蓝光币
426
发表于 2021-8-20 00:43:23 | 显示全部楼层 |阅读模式


◎译  名 活该的天主 / Killing God
◎片  名 Matar a Dios
◎年  代 2017
◎产  地 西班牙
◎类  别 剧情 / 可骇
◎语  言 西班牙语
◎上映日期 2017-10-11(锡切斯电影节)
◎IMDb评分  6.2/10 from 665 users
◎IMDb链接  https://www.imdb.com/title/tt6229030
◎豆瓣评分 0/10 from 0 users
◎豆瓣链接 https://movie.douban.com/subject/30177344/
◎片  长 92分钟
◎导  演 Albert PINTó
◎编  剧 Caye Casas / Albert Pintó
◎主  演 埃杜阿多·安图纳 Eduardo Antu?a
       伊西娅尔·卡斯特罗 Itziar Castro
       Emilio Gavira

◎标  签 奇异 | 西班牙 | 金馬奇异影展_2018 | 记号 | 美式可骇 | 片單 | 劇情 | 2017
◎简  介

  
  本該溫馨的跨年夜,卡洛斯卻發現被妻子戴綠帽,兩人吵得不成開交之際,爸爸和弟弟恰好登門「共度佳節」。各懷苦衷的四人同享食之無味的晚饭,忽然闖進一位大鬍子流浪漢,不僅自稱是天主,還預告人類即將滅亡,但他們當中有兩人能夠存活,而且由他們相互投票決定!是神蹟還是唬爛,信還不信?絕望的丈夫、自大的妻子、憂鬱失婚男、臨老入花叢的歐吉桑, 誰該活下去?爾虞我詐、你猜我忌,原已不服靜的夜晚,這下更堕入無止盡的瘋狂混亂!
  《該死的天主》是阿爾貝托品托、卡耶卡薩斯的首部劇情長片,全片圍繞在一間屋子、五個配角身上,卻毫無冷場。因為劇本太出色、脚色夠張狂,在唇槍舌劍之間,狠狠顛覆宗教信仰、家庭價值,不但人性大爆發,還有血漿大噴發,诙谐又可骇,懸疑又癲狂,難以預料的劇情走向,飞腾迭起、荒謬到底!
  1. Video
  2. ID                                       : 1
  3. Format                                   : AVC
  4. Format/Info                              : Advanced Video Codec
  5. Format profile                           : [email protected]
  6. Format settings                          : CABAC / 4 Ref Frames
  7. Format settings, CABAC                   : Yes
  8. Format settings, Reference frames        : 4 frames
  9. Codec ID                                 : V_MPEG4/ISO/AVC
  10. Duration                                 : 1 h 28 min
  11. Bit rate mode                            : Constant
  12. Bit rate                                 : 8 812 kb/s
  13. Nominal bit rate                         : 10 000 kb/s
  14. Width                                    : 1 920 pixels
  15. Height                                   : 1 080 pixels
  16. Display aspect ratio                     : 16:9
  17. Frame rate mode                          : Constant
  18. Frame rate                               : 25.000 FPS
  19. Color space                              : YUV
  20. Chroma subsampling                       : 4:2:0
  21. Bit depth                                : 8 bits
  22. Scan type                                : Progressive
  23. Bits/(Pixel*Frame)                       : 0.170
  24. Stream size                              : 5.47 GiB (97%)
  25. Default                                  : Yes
  26. Forced                                   : No
  27. Color range                              : Limited
  28. Color primaries                          : BT.709
  29. Transfer characteristics                 : BT.709
  30. Matrix coefficients                      : BT.709
  31. Audio
  32. ID                                       : 2
  33. Format                                   : E-AC-3
  34. Format/Info                              : Enhanced AC-3
  35. Commercial name                          : Dolby Digital Plus
  36. Codec ID                                 : A_EAC3
  37. Duration                                 : 1 h 28 min
  38. Bit rate mode                            : Constant
  39. Bit rate                                 : 224 kb/s
  40. Channel(s)                               : 2 channels
  41. Channel layout                           : L R
  42. Sampling rate                            : 48.0 kHz
  43. Frame rate                               : 31.250 FPS (1536 SPF)
  44. Compression mode                         : Lossy
  45. Stream size                              : 142 MiB (2%)
  46. Language                                 : Spanish
  47. Service kind                             : Complete Main
  48. Default                                  : Yes
  49. Forced                                   : No
  50. Text #1
  51. ID                                       : 3
  52. Format                                   : UTF-8
  53. Codec ID                                 : S_TEXT/UTF8
  54. Codec ID/Info                            : UTF-8 Plain Text
  55. Duration                                 : 1 h 22 min
  56. Bit rate                                 : 58 b/s
  57. Count of elements                        : 1146
  58. Stream size                              : 35.6 KiB (0%)
  59. Language                                 : English
  60. Default                                  : No
  61. Forced                                   : No
  62. Text #2
  63. ID                                       : 4
  64. Format                                   : UTF-8
  65. Codec ID                                 : S_TEXT/UTF8
  66. Codec ID/Info                            : UTF-8 Plain Text
  67. Duration                                 : 1 h 26 min
  68. Bit rate                                 : 57 b/s
  69. Count of elements                        : 1196
  70. Stream size                              : 36.4 KiB (0%)
  71. Title                                    : SDH
  72. Language                                 : English
  73. Default                                  : No
  74. Forced                                   : No
复制代码






                                       
                                       

                                       
                                       
                                       




回复

使用道具 举报

懒得打字嘛,点击右侧快捷回复 【右侧内容,后台自定义】
您需要登录后才可以回帖 登录 | 立即加入

本版积分规则

Archiver|小黑屋| 蓝光电影网 |网站地图

Copyright © 2021 Comsenz Inc. Powered by 蓝光电影网

蓝光电影网

本站内容由用户自主分享和转载自互联网,转载目的在于传递更多信息,并不代表本网赞同其观点和对其真实性负责。

如有侵权、违反国家法律政策行为,请联系我们,我们会第一时间及时清除和处理!

举报反馈邮箱:[email protected]

快速回复 返回顶部 返回列表