找回密码

蓝光电影网

查看: 14|回复: 0

[剧情] 优雅女子 Las.Ninas.Bien.2018.SPANISH.1080p.AMZN.WEBRip.DDP2.0.x264-TEPES 5.27GB

[复制链接]
蓝光币
426
发表于 2021-8-20 00:44:03 | 显示全部楼层 |阅读模式


◎译  名 文雅女子 / The Good Girls / 名媛出错 / 朱门若梦(港)
◎片  名 Las ni?as bien
◎年  代 2018
◎产  地 墨西哥
◎类  别 剧情
◎语  言 西班牙语
◎上映日期 2018-09-09(多伦多电影节)
◎IMDb评分  7.1/10 from 1175 users
◎IMDb链接  https://www.imdb.com/title/tt7482212
◎豆瓣评分 6.6/10 from 82 users
◎豆瓣链接 https://movie.douban.com/subject/30309207/
◎片  长 93分钟
◎导  演 Alejandra Márquez Abella
◎编  剧 Alejandra Márquez Abella
◎主  演 伊尔丝·萨拉斯 Ilse Salas
       卡珊德拉·钱盖罗蒂 Cassandra Ciangherotti
       鲍琳娜·盖坦 Paulina Gaitan
       Flavio Medina

◎标  签 墨西哥 | 时髦 | 2019 | 虚荣 | 剧情 | 社会 | 电影 | 墨西哥電影
◎简  介

  
  诱人完善、养尊处优的Sofia是朋友中的交际女王,惋惜她的女王职位正朝不保夕。那是1982年,墨西哥正面临经济危机。 Sofia必须在保持其表面的同时,不能不接管自己职位下沉的究竟,她也必须学会在钱得来不易的情况下过活。
◎获奖情况  
  第43届多伦多国际电影节(2018)
  站台奖(提名)
  1. Video
  2. ID                                       : 1
  3. Format                                   : AVC
  4. Format/Info                              : Advanced Video Codec
  5. Format profile                           : [email protected]
  6. Format settings                          : CABAC / 4 Ref Frames
  7. Format settings, CABAC                   : Yes
  8. Format settings, Reference frames        : 4 frames
  9. Codec ID                                 : V_MPEG4/ISO/AVC
  10. Duration                                 : 1 h 39 min
  11. Bit rate mode                            : Constant
  12. Bit rate                                 : 7 374 kb/s
  13. Nominal bit rate                         : 10 000 kb/s
  14. Width                                    : 1 920 pixels
  15. Height                                   : 800 pixels
  16. Display aspect ratio                     : 2.40:1
  17. Frame rate mode                          : Constant
  18. Frame rate                               : 24.000 FPS
  19. Color space                              : YUV
  20. Chroma subsampling                       : 4:2:0
  21. Bit depth                                : 8 bits
  22. Scan type                                : Progressive
  23. Bits/(Pixel*Frame)                       : 0.200
  24. Stream size                              : 5.11 GiB (97%)
  25. Default                                  : Yes
  26. Forced                                   : No
  27. Color range                              : Limited
  28. Color primaries                          : BT.709
  29. Transfer characteristics                 : BT.709
  30. Matrix coefficients                      : BT.709
  31. Audio
  32. ID                                       : 2
  33. Format                                   : E-AC-3
  34. Format/Info                              : Enhanced AC-3
  35. Commercial name                          : Dolby Digital Plus
  36. Codec ID                                 : A_EAC3
  37. Duration                                 : 1 h 39 min
  38. Bit rate mode                            : Constant
  39. Bit rate                                 : 224 kb/s
  40. Channel(s)                               : 2 channels
  41. Channel layout                           : L R
  42. Sampling rate                            : 48.0 kHz
  43. Frame rate                               : 31.250 FPS (1536 SPF)
  44. Compression mode                         : Lossy
  45. Stream size                              : 159 MiB (3%)
  46. Language                                 : Spanish
  47. Service kind                             : Complete Main
  48. Default                                  : Yes
  49. Forced                                   : No
  50. Text #1
  51. ID                                       : 3
  52. Format                                   : UTF-8
  53. Codec ID                                 : S_TEXT/UTF8
  54. Codec ID/Info                            : UTF-8 Plain Text
  55. Duration                                 : 1 h 32 min
  56. Bit rate                                 : 41 b/s
  57. Count of elements                        : 736
  58. Stream size                              : 27.9 KiB (0%)
  59. Language                                 : English
  60. Default                                  : No
  61. Forced                                   : No
  62. Text #2
  63. ID                                       : 4
  64. Format                                   : UTF-8
  65. Codec ID                                 : S_TEXT/UTF8
  66. Codec ID/Info                            : UTF-8 Plain Text
  67. Duration                                 : 1 h 32 min
  68. Bit rate                                 : 44 b/s
  69. Count of elements                        : 773
  70. Stream size                              : 30.4 KiB (0%)
  71. Language                                 : Turkish
  72. Default                                  : No
  73. Forced                                   : No
复制代码






                                       
                                       

                                       
                                       
                                       




回复

使用道具 举报

懒得打字嘛,点击右侧快捷回复 【右侧内容,后台自定义】
您需要登录后才可以回帖 登录 | 立即加入

本版积分规则

Archiver|小黑屋| 蓝光电影网 |网站地图

Copyright © 2021 Comsenz Inc. Powered by 蓝光电影网

蓝光电影网

本站内容由用户自主分享和转载自互联网,转载目的在于传递更多信息,并不代表本网赞同其观点和对其真实性负责。

如有侵权、违反国家法律政策行为,请联系我们,我们会第一时间及时清除和处理!

举报反馈邮箱:[email protected]mail.com

快速回复 返回顶部 返回列表