找回密码

蓝光电影网

查看: 8|回复: 0

[剧情] 闭上我的眼睛 Close.My.Eyes.1991.1080p.AMZN.WEBRip.DDP2.0.x264-NTb 7.42GB

[复制链接]
蓝光币
382
发表于 2021-8-20 00:44:13 | 显示全部楼层 |阅读模式


◎译  名 闭上我的眼睛
◎片  名 Close My Eyes
◎年  代 1991
◎产  地 英国
◎类  别 剧情 / 恋爱
◎语  言 英语
◎上映日期 1991-09-06
◎IMDb评分  6.3/10 from 2876 users
◎IMDb链接  https://www.imdb.com/title/tt0101595
◎豆瓣评分 7.4/10 from 339 users
◎豆瓣链接 https://movie.douban.com/subject/1916034/
◎片  长 Canada: 108 分钟
◎导  演 Stephen Poliakoff
◎编  剧 Stephen Poliakoff
◎主  演 Alan Rickman
       Saskia Reeves
       Clive Owen

◎标  签 AlanRickman | 英国 | 英国电影 | 乱伦 | Alan_Rickman | AR | 剧情 | 家庭
◎简  介

  
  After some years of tension, Richard (Clive Owen) begins a sexual relationship with his sister Natalie (Saskia Reeves). Now married, the relationship proves dangerously obsessional. Their private intensity (& working class origins) contrast with the middle-class, inhibited, stuffy public scenes we see in the Richmond world into which Natalie has moved with her marriage. As the guilt and intensity of the siblings increases we seem to be heading for disaster, a forboding which increases when Natalie's husband Sinclair finds out.
  1. Video
  2. ID                                       : 1
  3. Format                                   : AVC
  4. Format/Info                              : Advanced Video Codec
  5. Format profile                           : [email protected]
  6. Format settings                          : CABAC / 4 Ref Frames
  7. Format settings, CABAC                   : Yes
  8. Format settings, Reference frames        : 4 frames
  9. Codec ID                                 : V_MPEG4/ISO/AVC
  10. Duration                                 : 1 h 44 min
  11. Bit rate mode                            : Constant
  12. Bit rate                                 : 10 000 kb/s
  13. Width                                    : 1 920 pixels
  14. Height                                   : 1 080 pixels
  15. Display aspect ratio                     : 16:9
  16. Frame rate mode                          : Constant
  17. Frame rate                               : 25.000 FPS
  18. Standard                                 : PAL
  19. Color space                              : YUV
  20. Chroma subsampling                       : 4:2:0
  21. Bit depth                                : 8 bits
  22. Scan type                                : Progressive
  23. Bits/(Pixel*Frame)                       : 0.193
  24. Stream size                              : 7.26 GiB (98%)
  25. Language                                 : English
  26. Default                                  : Yes
  27. Forced                                   : No
  28. Color range                              : Limited
  29. Color primaries                          : BT.709
  30. Transfer characteristics                 : BT.709
  31. Matrix coefficients                      : BT.709
  32. Audio
  33. ID                                       : 2
  34. Format                                   : E-AC-3
  35. Format/Info                              : Enhanced AC-3
  36. Commercial name                          : Dolby Digital Plus
  37. Codec ID                                 : A_EAC3
  38. Duration                                 : 1 h 44 min
  39. Bit rate mode                            : Constant
  40. Bit rate                                 : 224 kb/s
  41. Channel(s)                               : 2 channels
  42. Channel layout                           : L R
  43. Sampling rate                            : 48.0 kHz
  44. Frame rate                               : 31.250 FPS (1536 SPF)
  45. Compression mode                         : Lossy
  46. Stream size                              : 167 MiB (2%)
  47. Language                                 : English
  48. Service kind                             : Complete Main
  49. Default                                  : Yes
  50. Forced                                   : No
复制代码






                                       
                                       

                                       
                                       
                                       




回复

使用道具 举报

懒得打字嘛,点击右侧快捷回复 【右侧内容,后台自定义】
您需要登录后才可以回帖 登录 | 立即加入

本版积分规则

Archiver|小黑屋| 蓝光电影网 |网站地图

Copyright © 2021 Comsenz Inc. Powered by 蓝光电影网

蓝光电影网

本站内容由用户自主分享和转载自互联网,转载目的在于传递更多信息,并不代表本网赞同其观点和对其真实性负责。

如有侵权、违反国家法律政策行为,请联系我们,我们会第一时间及时清除和处理!

举报反馈邮箱:[email protected]

快速回复 返回顶部 返回列表