找回密码

蓝光电影网

查看: 7|回复: 0

[剧情] 小女子成长记/告别童贞 长大成人 CRSHD.2019.1080p.WEB-DL.DD5.1.H264-FGT 3.19GB

[复制链接]
蓝光币
426
发表于 2021-8-20 00:44:17 | 显示全部楼层 |阅读模式


◎译  名 小女子长大记 / 离别童贞 长大成人
◎片  名 Crshd
◎年  代 2019
◎产  地 美国
◎类  别 剧情 / 笑剧
◎语  言 英语
◎IMDb评分  6.1/10 from 184 users
◎IMDb链接  https://www.imdb.com/title/tt8315302
◎豆瓣评分 0/10 from 0 users
◎豆瓣链接 https://movie.douban.com/subject/34456134/
◎导  演 Emily Cohn
◎编  剧 Emily Cohn
◎主  演 Isabelle Barbier
       赛迪·司各特 Sadie Scott
       Deeksha Ketkar
       Abdul Seidu
       Shelby Brunn
       Daniel Cramer
       Raph Fineberg
       L.H. González
       Callie Harlow
       Will Janowitz
       Peter Lawson Jones
       Dylan Rogers
       杰瑞·李·塔克 Jerry Lee Tucker

◎简  介

  
  On the last night of her college freshman year, Izzy tries to lose her virginity with the help of her two best friends--but their only hope is getting into an exclusive, invite-only "Crush Party."
  1. Video
  2. ID                                       : 1
  3. Format                                   : AVC
  4. Format/Info                              : Advanced Video Codec
  5. Format profile                           : [email protected]
  6. Format settings                          : CABAC / 4 Ref Frames
  7. Format settings, CABAC                   : Yes
  8. Format settings, Reference frames        : 4 frames
  9. Codec ID                                 : V_MPEG4/ISO/AVC
  10. Duration                                 : 1 h 20 min
  11. Bit rate                                 : 5 247 kb/s
  12. Width                                    : 1 920 pixels
  13. Height                                   : 1 080 pixels
  14. Display aspect ratio                     : 16:9
  15. Frame rate mode                          : Constant
  16. Frame rate                               : 23.976 (24000/1001/189150) FPS
  17. Color space                              : YUV
  18. Chroma subsampling                       : 4:2:0
  19. Bit depth                                : 8 bits
  20. Scan type                                : Progressive
  21. Bits/(Pixel*Frame)                       : 0.106
  22. Stream size                              : 2.97 GiB (93%)
  23. Title                                    : CRSHD.2019.1080p.WEB-DL.DD5.1.H264-FGT
  24. Language                                 : English
  25. Default                                  : Yes
  26. Forced                                   : No
  27. Color range                              : Limited
  28. Color primaries                          : BT.709
  29. Transfer characteristics                 : BT.709
  30. Matrix coefficients                      : BT.709
  31. Audio
  32. ID                                       : 2
  33. Format                                   : AC-3
  34. Format/Info                              : Audio Coding 3
  35. Commercial name                          : Dolby Digital
  36. Codec ID                                 : A_AC3
  37. Duration                                 : 1 h 20 min
  38. Bit rate mode                            : Constant
  39. Bit rate                                 : 384 kb/s
  40. Channel(s)                               : 6 channels
  41. Channel layout                           : L R C LFE Ls Rs
  42. Sampling rate                            : 48.0 kHz
  43. Frame rate                               : 31.250 FPS (1536 SPF)
  44. Bit depth                                : 16 bits
  45. Compression mode                         : Lossy
  46. Stream size                              : 222 MiB (7%)
  47. Title                                    : CRSHD.2019.1080p.WEB-DL.DD5.1.H264-FGT
  48. Language                                 : English
  49. Service kind                             : Complete Main
  50. Default                                  : Yes
  51. Forced                                   : No
  52. Text
  53. ID                                       : 3
  54. Format                                   : UTF-8
  55. Codec ID                                 : S_TEXT/UTF8
  56. Codec ID/Info                            : UTF-8 Plain Text
  57. Duration                                 : 1 h 15 min
  58. Bit rate                                 : 61 b/s
  59. Count of elements                        : 1265
  60. Stream size                              : 33.9 KiB (0%)
  61. Language                                 : English
  62. Default                                  : Yes
  63. Forced                                   : No
  64. Menu
  65. 00:00:00.000                             : en:1
  66. 00:19:24.000                             : en:2
  67. 00:39:46.000                             : en:3
  68. 00:59:56.000                             : en:4
复制代码






                                       
                                       

                                       
                                       
                                       




回复

使用道具 举报

懒得打字嘛,点击右侧快捷回复 【右侧内容,后台自定义】
您需要登录后才可以回帖 登录 | 立即加入

本版积分规则

Archiver|小黑屋| 蓝光电影网 |网站地图

Copyright © 2021 Comsenz Inc. Powered by 蓝光电影网

蓝光电影网

本站内容由用户自主分享和转载自互联网,转载目的在于传递更多信息,并不代表本网赞同其观点和对其真实性负责。

如有侵权、违反国家法律政策行为,请联系我们,我们会第一时间及时清除和处理!

举报反馈邮箱:[email protected]

快速回复 返回顶部 返回列表