找回密码

蓝光电影网

查看: 13|回复: 0

[剧情] 葡萄牙女人 A.Portuguesa.2018.PORTUGUESE.1080p.AMZN.WEBRip.DDP2.0.x264-TEPES 9.36GB

[复制链接]
蓝光币
382
发表于 2021-8-20 00:44:38 | 显示全部楼层 |阅读模式


◎译  名 葡萄牙女人 / The Portuguese Woman / 菩提树下花飘零(港)
◎片  名 A Portuguesa
◎年  代 2018
◎产  地 葡萄牙
◎类  别 剧情
◎语  言 葡萄牙语 / 法语 / 德语
◎上映日期 2019-02(柏林电影节)
◎IMDb评分  6.5/10 from 156 users
◎IMDb链接  https://www.imdb.com/title/tt7746590
◎豆瓣评分 0/10 from 0 users
◎豆瓣链接 https://movie.douban.com/subject/30422405/
◎片  长 138分钟
◎导  演 丽塔·阿齐维多·戈麦斯 Rita Azevedo Gomes
◎编  剧 丽塔·阿齐维多·戈麦斯 Rita Azevedo Gomes / Robert Musil
◎主  演 Clara Riedenstein
       马塞洛·乌戈盖 Marcello Urgeghe
       英格丽·卡文 Ingrid Caven
       Rita Dur?o
       皮埃尔·雷昂 Pierre Léon
       约奥·维森特·德·卡斯特罗 Jo?o Vicente de Castro
       Luna Picoli-Truffaut

◎标  签 葡萄牙 | 2019 | 剧情 | 葡萄牙电影 | 柏林电影节 | 女性 | 历史剧 | 恋爱
◎简  介

  
  在文化與野蠻對峙的時代,與特倫特主教爭戰多年的將軍,遠赴葡萄牙娶妻生子後,急不及待重返戰場。妻子靜守孤堡十一年,歸來是身心俱殘的丈夫,在漫天蜚语中,灭亡在床榻悄悄等待?導演高美斯以恍如彼得布勒哲爾的古典畫風,繪出羅拔穆齊爾同名故事的沉澱哲思,於群山縈繞的迷霧裏,窺看人沉沦於戰爭懷抱,與靈魂、與愛情漸行漸遠。法斯賓達前妻英格烈卡文以顫音低吟中古詩歌《菩提樹下》,道是愛比死更冷?
  1. Video
  2. ID                                       : 1
  3. Format                                   : AVC
  4. Format/Info                              : Advanced Video Codec
  5. Format profile                           : [email protected]
  6. Format settings                          : CABAC / 4 Ref Frames
  7. Format settings, CABAC                   : Yes
  8. Format settings, Reference frames        : 4 frames
  9. Codec ID                                 : V_MPEG4/ISO/AVC
  10. Duration                                 : 2 h 17 min
  11. Bit rate mode                            : Constant
  12. Bit rate                                 : 9 514 kb/s
  13. Nominal bit rate                         : 10 000 kb/s
  14. Width                                    : 1 920 pixels
  15. Height                                   : 1 040 pixels
  16. Display aspect ratio                     : 1.85:1
  17. Frame rate mode                          : Constant
  18. Frame rate                               : 25.000 FPS
  19. Color space                              : YUV
  20. Chroma subsampling                       : 4:2:0
  21. Bit depth                                : 8 bits
  22. Scan type                                : Progressive
  23. Bits/(Pixel*Frame)                       : 0.191
  24. Stream size                              : 9.14 GiB (98%)
  25. Default                                  : Yes
  26. Forced                                   : No
  27. Color range                              : Limited
  28. Color primaries                          : BT.709
  29. Transfer characteristics                 : BT.709
  30. Matrix coefficients                      : BT.709
  31. Audio
  32. ID                                       : 2
  33. Format                                   : E-AC-3
  34. Format/Info                              : Enhanced AC-3
  35. Commercial name                          : Dolby Digital Plus
  36. Codec ID                                 : A_EAC3
  37. Duration                                 : 2 h 17 min
  38. Bit rate mode                            : Constant
  39. Bit rate                                 : 224 kb/s
  40. Channel(s)                               : 2 channels
  41. Channel layout                           : L R
  42. Sampling rate                            : 48.0 kHz
  43. Frame rate                               : 31.250 FPS (1536 SPF)
  44. Compression mode                         : Lossy
  45. Stream size                              : 220 MiB (2%)
  46. Language                                 : Portuguese
  47. Service kind                             : Complete Main
  48. Default                                  : Yes
  49. Forced                                   : No
  50. Text #1
  51. ID                                       : 3
  52. Format                                   : UTF-8
  53. Codec ID                                 : S_TEXT/UTF8
  54. Codec ID/Info                            : UTF-8 Plain Text
  55. Duration                                 : 2 h 13 min
  56. Bit rate                                 : 22 b/s
  57. Count of elements                        : 808
  58. Stream size                              : 22.3 KiB (0%)
  59. Language                                 : English
  60. Default                                  : No
  61. Forced                                   : No
  62. Text #2
  63. ID                                       : 4
  64. Format                                   : UTF-8
  65. Codec ID                                 : S_TEXT/UTF8
  66. Codec ID/Info                            : UTF-8 Plain Text
  67. Duration                                 : 2 h 16 min
  68. Bit rate                                 : 22 b/s
  69. Count of elements                        : 774
  70. Stream size                              : 22.7 KiB (0%)
  71. Title                                    : Espa?ol
  72. Language                                 : Spanish
  73. Default                                  : No
  74. Forced                                   : No
  75. Text #3
  76. ID                                       : 5
  77. Format                                   : UTF-8
  78. Codec ID                                 : S_TEXT/UTF8
  79. Codec ID/Info                            : UTF-8 Plain Text
  80. Duration                                 : 2 h 16 min
  81. Bit rate                                 : 23 b/s
  82. Count of elements                        : 731
  83. Stream size                              : 23.8 KiB (0%)
  84. Language                                 : French
  85. Default                                  : No
  86. Forced                                   : No
  87. Text #4
  88. ID                                       : 6
  89. Format                                   : UTF-8
  90. Codec ID                                 : S_TEXT/UTF8
  91. Codec ID/Info                            : UTF-8 Plain Text
  92. Duration                                 : 2 h 12 min
  93. Bit rate                                 : 2 b/s
  94. Count of elements                        : 97
  95. Stream size                              : 2.64 KiB (0%)
  96. Title                                    : Português
  97. Language                                 : Portuguese
  98. Default                                  : No
  99. Forced                                   : No
  100. Text #5
  101. ID                                       : 7
  102. Format                                   : UTF-8
  103. Codec ID                                 : S_TEXT/UTF8
  104. Codec ID/Info                            : UTF-8 Plain Text
  105. Duration                                 : 2 h 12 min
  106. Bit rate                                 : 24 b/s
  107. Count of elements                        : 761
  108. Stream size                              : 23.6 KiB (0%)
  109. Language                                 : Turkish
  110. Default                                  : No
  111. Forced                                   : No
复制代码






                                       
                                       

                                       
                                       
                                       




回复

使用道具 举报

懒得打字嘛,点击右侧快捷回复 【右侧内容,后台自定义】
您需要登录后才可以回帖 登录 | 立即加入

本版积分规则

Archiver|小黑屋| 蓝光电影网 |网站地图

Copyright © 2021 Comsenz Inc. Powered by 蓝光电影网

蓝光电影网

本站内容由用户自主分享和转载自互联网,转载目的在于传递更多信息,并不代表本网赞同其观点和对其真实性负责。

如有侵权、违反国家法律政策行为,请联系我们,我们会第一时间及时清除和处理!

举报反馈邮箱:[email protected]

快速回复 返回顶部 返回列表