找回密码

蓝光电影网

查看: 10|回复: 0

[剧情] 和你一样/超脫青春 As.You.Are.2016.1080p.AMZN.WEBRip.DD5.1.x264-NTG 5.60GB

[复制链接]
蓝光币
382
发表于 2021-8-20 00:44:43 | 显示全部楼层 |阅读模式


◎译  名 和你一样 / 超脫青春(台)
◎片  名 As You Are
◎年  代 2016
◎产  地 美国
◎类  别 剧情 / 悬疑
◎语  言 英语
◎上映日期 2016-05-11(戛纳电影节)
◎IMDb评分  6.6/10 from 1931 users
◎IMDb链接  https://www.imdb.com/title/tt4444438
◎豆瓣评分 0/10 from 0 users
◎豆瓣链接 https://movie.douban.com/subject/26677761/
◎片  长 110分钟
◎导  演 Miles Joris-Peyrafitte
◎编  剧 Miles Joris-Peyrafitte / Madison Harrison
◎主  演 欧文·坎贝尔 Owen Campbell
       Charlie Heaton
       阿曼德拉·斯坦伯格  Amandla Stenberg
       John Scurti
       斯科特·科恩 Scott Cohen
       玛丽·斯图尔特·马斯特森 Mary Stuart Masterson

◎标  签 美国 | 青春 | 同性 | 2016 | 美國 | 压制 | 電影 | 同道
◎简  介

  
  Set in the early 1990's, "As You Are" is the telling and retelling of a relationship between three teenagers as it traces the course of their friendship through a construction of disparate memories prompted by a police investigation.
◎获奖情况  
  第32届圣丹斯电影节(2016)
  评审团大奖 剧情片(提名)
  第64届圣塞巴斯蒂安国际电影节(2016)
  金贝壳奖(提名)
  1. Video
  2. ID                                       : 1
  3. Format                                   : AVC
  4. Format/Info                              : Advanced Video Codec
  5. Format profile                           : [email protected]
  6. Format settings                          : CABAC / 4 Ref Frames
  7. Format settings, CABAC                   : Yes
  8. Format settings, Reference frames        : 4 frames
  9. Codec ID                                 : V_MPEG4/ISO/AVC
  10. Duration                                 : 1 h 44 min
  11. Bit rate mode                            : Variable
  12. Bit rate                                 : 7 012 kb/s
  13. Maximum bit rate                         : 15.0 Mb/s
  14. Width                                    : 1 920 pixels
  15. Height                                   : 1 080 pixels
  16. Display aspect ratio                     : 16:9
  17. Frame rate mode                          : Constant
  18. Frame rate                               : 23.976 (24000/1001/189150) FPS
  19. Color space                              : YUV
  20. Chroma subsampling                       : 4:2:0
  21. Bit depth                                : 8 bits
  22. Scan type                                : Progressive
  23. Bits/(Pixel*Frame)                       : 0.141
  24. Stream size                              : 5.13 GiB (92%)
  25. Default                                  : Yes
  26. Forced                                   : No
  27. Color range                              : Limited
  28. Color primaries                          : BT.709
  29. Transfer characteristics                 : BT.709
  30. Matrix coefficients                      : BT.709
  31. Audio
  32. ID                                       : 2
  33. Format                                   : E-AC-3
  34. Format/Info                              : Enhanced AC-3
  35. Commercial name                          : Dolby Digital Plus
  36. Codec ID                                 : A_EAC3
  37. Duration                                 : 1 h 44 min
  38. Bit rate mode                            : Constant
  39. Bit rate                                 : 640 kb/s
  40. Channel(s)                               : 6 channels
  41. Channel layout                           : L R C LFE Ls Rs
  42. Sampling rate                            : 48.0 kHz
  43. Frame rate                               : 31.250 FPS (1536 SPF)
  44. Compression mode                         : Lossy
  45. Stream size                              : 479 MiB (8%)
  46. Language                                 : English
  47. Service kind                             : Complete Main
  48. Default                                  : Yes
  49. Forced                                   : No
  50. Text
  51. ID                                       : 3
  52. Format                                   : UTF-8
  53. Codec ID                                 : S_TEXT/UTF8
  54. Codec ID/Info                            : UTF-8 Plain Text
  55. Duration                                 : 1 h 44 min
  56. Bit rate                                 : 44 b/s
  57. Count of elements                        : 1352
  58. Stream size                              : 34.3 KiB (0%)
  59. Language                                 : English
  60. Default                                  : No
  61. Forced                                   : No
复制代码






                                       
                                       

                                       
                                       
                                       




回复

使用道具 举报

懒得打字嘛,点击右侧快捷回复 【右侧内容,后台自定义】
您需要登录后才可以回帖 登录 | 立即加入

本版积分规则

Archiver|小黑屋| 蓝光电影网 |网站地图

Copyright © 2021 Comsenz Inc. Powered by 蓝光电影网

蓝光电影网

本站内容由用户自主分享和转载自互联网,转载目的在于传递更多信息,并不代表本网赞同其观点和对其真实性负责。

如有侵权、违反国家法律政策行为,请联系我们,我们会第一时间及时清除和处理!

举报反馈邮箱:[email protected]

快速回复 返回顶部 返回列表