找回密码

蓝光电影网

查看: 11|回复: 0

[剧情] 阴谋 Conspiracy.2008.1080p.AMZN.WEBRip.DDP5.1.x264-alfaHD 6.42GB

[复制链接]
蓝光币
382
发表于 2021-8-20 00:44:59 | 显示全部楼层 |阅读模式


◎译  名 诡计
◎片  名 Conspiracy
◎年  代 2008
◎产  地 美国
◎类  别 剧情 / 行动 / 悬疑 / 惊悚 / 战争
◎语  言 英语 / 西班牙语 / 俄语 / 阿拉伯语 / 法语
◎上映日期 2008-02-15(美国)
◎IMDb评分  4.6/10 from 3691 users
◎IMDb链接  https://www.imdb.com/title/tt1043838
◎豆瓣评分 5.1/10 from 284 users
◎豆瓣链接 https://movie.douban.com/subject/3011588/
◎片  长 90 分钟
◎导  演 亚当·马库斯 Adam Marcus
◎编  剧 亚当·马库斯 Adam Marcus / 黛布拉·沙利文 Debra Sullivan
◎主  演 方·基默 Val Kilmer
       盖瑞·科尔 Gary Cole
       珍妮弗·艾斯波西多 Jennifer Esposito

◎标  签 美国 | 行动 | 美国电影 | 暴力 | 战争 | 悬疑 | 我看过的电影 | 2008
◎简  介

  
  一个神机妙算的美国水兵陆战队员在伊拉克受伤前进役,并整理行李来到美国西南拜候他的朋友,可是当他来到朋友住的地方,发现他朋朋友世蒸发了,而且四周的人都不谋而合的说从没见过他的朋友...
  1. Video
  2. ID                                       : 1
  3. Format                                   : AVC
  4. Format/Info                              : Advanced Video Codec
  5. Format profile                           : [email protected]
  6. Format settings                          : CABAC / 4 Ref Frames
  7. Format settings, CABAC                   : Yes
  8. Format settings, Reference frames        : 4 frames
  9. Codec ID                                 : V_MPEG4/ISO/AVC
  10. Duration                                 : 1 h 30 min
  11. Bit rate mode                            : Constant
  12. Bit rate                                 : 10 000 kb/s
  13. Width                                    : 1 920 pixels
  14. Height                                   : 1 080 pixels
  15. Display aspect ratio                     : 16:9
  16. Frame rate mode                          : Constant
  17. Frame rate                               : 23.976 (24000/1001/189150) FPS
  18. Color space                              : YUV
  19. Chroma subsampling                       : 4:2:0
  20. Bit depth                                : 8 bits
  21. Scan type                                : Progressive
  22. Bits/(Pixel*Frame)                       : 0.201
  23. Stream size                              : 6.01 GiB (94%)
  24. Default                                  : Yes
  25. Forced                                   : No
  26. Color range                              : Limited
  27. Color primaries                          : BT.709
  28. Transfer characteristics                 : BT.709
  29. Matrix coefficients                      : BT.709
  30. Audio
  31. ID                                       : 2
  32. Format                                   : E-AC-3
  33. Format/Info                              : Enhanced AC-3
  34. Commercial name                          : Dolby Digital Plus
  35. Codec ID                                 : A_EAC3
  36. Duration                                 : 1 h 30 min
  37. Bit rate mode                            : Constant
  38. Bit rate                                 : 640 kb/s
  39. Channel(s)                               : 6 channels
  40. Channel layout                           : L R C LFE Ls Rs
  41. Sampling rate                            : 48.0 kHz
  42. Frame rate                               : 31.250 FPS (1536 SPF)
  43. Compression mode                         : Lossy
  44. Stream size                              : 412 MiB (6%)
  45. Service kind                             : Complete Main
  46. Default                                  : Yes
  47. Forced                                   : No
  48. Text #1
  49. ID                                       : 3
  50. Format                                   : UTF-8
  51. Codec ID                                 : S_TEXT/UTF8
  52. Codec ID/Info                            : UTF-8 Plain Text
  53. Duration                                 : 1 h 26 min
  54. Bit rate                                 : 57 b/s
  55. Count of elements                        : 1200
  56. Stream size                              : 36.5 KiB (0%)
  57. Language                                 : English
  58. Default                                  : No
  59. Forced                                   : No
  60. Text #2
  61. ID                                       : 4
  62. Format                                   : UTF-8
  63. Codec ID                                 : S_TEXT/UTF8
  64. Codec ID/Info                            : UTF-8 Plain Text
  65. Duration                                 : 1 h 26 min
  66. Bit rate                                 : 61 b/s
  67. Count of elements                        : 1405
  68. Stream size                              : 39.4 KiB (0%)
  69. Title                                    : SDH
  70. Language                                 : English
  71. Default                                  : No
  72. Forced                                   : No
  73. Menu
  74. 00:00:00.000                             : en:Studio logos
  75. 00:00:16.000                             : en:Opening credits
  76. 00:03:30.000                             : en:MacPherson is traumatized by his past
  77. 00:08:21.000                             : en:MacPherson finally agrees to meet Miguel, multiple locations
  78. 00:12:43.000                             : en:MacPherson enquires about Miguel, hotel
  79. 00:16:44.000                             : en:Victor agrees to drop off MacPherson, New Lago
  80. 00:20:40.000                             : en:MacPherson finds nothing at the address Miguel gave him
  81. 00:26:31.000                             : en:MacPherson checks into a hotel, hotel
  82. 00:29:33.000                             : en:MacPherson goes to Carly\'s shop to find a book, Carly\'s Corner
  83. 00:34:06.000                             : en:MacPherson recalls Miguel giving him a copy of Watership Down, hospital
  84. 00:35:31.000                             : en:Rhodes tries to talk to MacPherson, restaurant
  85. 00:44:35.000                             : en:Bock arrests MacPherson & torture him, New Lago
  86. 00:46:22.000                             : en:Rhodes blackmails MacPherson when he enquires about Miguel, New Lago
  87. 00:50:44.000                             : en:MacPherson tries to escape, New Lago & ranch
  88. 00:57:05.000                             : en:MacPherson recalls the combat operation in Iraq, ranch & battlefield
  89. 00:58:05.000                             : en:MacPherson regains consciousness & Joanna tells him the truth about Rhodes, house
  90. 01:04:04.000                             : en:Joanna shows a tape of Miguel\'s death
  91. 01:11:01.000                             : en:E.B. delivers MacPherson\'s warning to Rhodes, ranch
  92. 01:13:39.000                             : en:Bock orders others to shoot at the car, New Lago
  93. 01:17:28.000                             : en:Deputy Foster teams up with MacPherson & helps him fight against Rhodes, New Lago
  94. 01:21:51.000                             : en:MacPherson avenges Miguel\'s death, New Lago
  95. 01:26:21.000                             : en:MacPherson starts a new life with Joanna & Carly in New Lago, ranch
  96. 01:27:28.000                             : en:End credits
复制代码






                                       
                                       

                                       
                                       
                                       




回复

使用道具 举报

懒得打字嘛,点击右侧快捷回复 【右侧内容,后台自定义】
您需要登录后才可以回帖 登录 | 立即加入

本版积分规则

Archiver|小黑屋| 蓝光电影网 |网站地图

Copyright © 2021 Comsenz Inc. Powered by 蓝光电影网

蓝光电影网

本站内容由用户自主分享和转载自互联网,转载目的在于传递更多信息,并不代表本网赞同其观点和对其真实性负责。

如有侵权、违反国家法律政策行为,请联系我们,我们会第一时间及时清除和处理!

举报反馈邮箱:[email protected]

快速回复 返回顶部 返回列表