找回密码

蓝光电影网

查看: 13|回复: 0

[剧情] 蛇蝎情人/梦中情人 Dream.Lover.1993.1080p.AMZN.WEBRip.DDP2.0.x264-ABM 7.12GB

[复制链接]
蓝光币
386
发表于 2021-8-20 00:45:02 | 显示全部楼层 |阅读模式


◎译  名 蛇蝎情人 / 梦中情人
◎片  名 Dream Lover
◎年  代 1993
◎产  地 美国
◎类  别 剧情 / 悬疑 / 惊悚
◎语  言 英语 / 德语
◎上映日期 1993-10(MIFED) / 1994-05-06(美国)
◎IMDb评分  6.2/10 from 4092 users
◎IMDb链接  https://www.imdb.com/title/tt0109665
◎豆瓣评分 6.8/10 from 1377 users
◎豆瓣链接 https://movie.douban.com/subject/1300729/
◎片  长 103 分钟
◎导  演 尼古拉斯·卡赞 Nicholas Kazan
◎编  剧 尼古拉斯·卡赞 Nicholas Kazan
◎主  演 詹姆斯·斯派德 James Spader
       梅晨·阿米克 M?dchen Amick
       弗瑞德里克·林恩 Fredric Lehne
       贝丝·阿姆斯特朗 Bess Armstrong
       拉里·米勒 Larry Miller
       凯瑟琳·约克 Kathleen York
       威廉姆·肖克利 William Shockley
       欧文·凯斯 Irwin Keyes
       乔尔·麦金农·米勒 Joel McKinnon Miller
       约瑟夫·斯科伦 Joseph Scoren
       克莱德·草津 Clyde Kusatsu
       亚历山大·福克 Alexander Folk
       周精华 Michael Chow
       简·默勒尼 Janel Moloney
       珍妮·贝茨 Jeanne Bates
       罗伯特·大卫·豪尔 Robert David Hall
       斯科特·科菲 Scott Coffey
       露西·巴特勒 Lucy Butler
       Harriet C. Leider
       Blair Tefkin
       保罗·本-维克托 Paul Ben-Victor
       Ava Dupree
       艾瑞克·阿瓦利 Erick Avari
       迈克尔·米尔汉 Michael Milhoan
       Tom Lillard
       Kate Williamson
       Carl Sundstrom
       Archie Lang

◎标  签 悬疑 | 美国 | 美国电影 | 剧情 | 恋爱 | 惊悚 | JamesSpader | James.Spader
◎简  介

  
  雷(詹姆斯·斯派德 James Spader 饰)和妻子虽然也有过恩爱有加的光阴,但时候令两人渐行渐远,当他们发现相互的间隔时,豪情的裂缝已经再也没法填补了。两人挑选了仳离。重新过上了单身生活的雷倍感孤单,某日,在一场富丽而又盛大的宴会上,雷相逢了一位名叫莉娜(梅晨·阿米克 M?dchen Amick 饰)的女子,后者的风情万种很快就吸引了雷的留意。
  经过了接二连三的偶遇,雷和莉娜坠入了情网,浓情深情的两人很快就决议携手步入婚姻的殿堂,不但如此,他们还有了相互恋爱的结晶。可是,甜蜜的时辰是长久的,莉娜日渐怪僻的举止令雷起了狐疑,而且终极发现了她的不忠。
  1. Video
  2. ID                                       : 1
  3. Format                                   : AVC
  4. Format/Info                              : Advanced Video Codec
  5. Format profile                           : [email protected]
  6. Format settings                          : CABAC / 4 Ref Frames
  7. Format settings, CABAC                   : Yes
  8. Format settings, Reference frames        : 4 frames
  9. Codec ID                                 : V_MPEG4/ISO/AVC
  10. Duration                                 : 1 h 43 min
  11. Bit rate mode                            : Constant
  12. Bit rate                                 : 10 000 kb/s
  13. Width                                    : 1 920 pixels
  14. Height                                   : 1 040 pixels
  15. Display aspect ratio                     : 1.85:1
  16. Frame rate mode                          : Constant
  17. Frame rate                               : 23.976 (24000/1001/189150) FPS
  18. Color space                              : YUV
  19. Chroma subsampling                       : 4:2:0
  20. Bit depth                                : 8 bits
  21. Scan type                                : Progressive
  22. Bits/(Pixel*Frame)                       : 0.209
  23. Stream size                              : 6.96 GiB (98%)
  24. Language                                 : English
  25. Default                                  : Yes
  26. Forced                                   : No
  27. Color range                              : Limited
  28. Color primaries                          : BT.709
  29. Transfer characteristics                 : BT.709
  30. Matrix coefficients                      : BT.709
  31. Audio
  32. ID                                       : 2
  33. Format                                   : E-AC-3
  34. Format/Info                              : Enhanced AC-3
  35. Commercial name                          : Dolby Digital Plus
  36. Codec ID                                 : A_EAC3
  37. Duration                                 : 1 h 43 min
  38. Bit rate mode                            : Constant
  39. Bit rate                                 : 224 kb/s
  40. Channel(s)                               : 2 channels
  41. Channel layout                           : L R
  42. Sampling rate                            : 48.0 kHz
  43. Frame rate                               : 31.250 FPS (1536 SPF)
  44. Compression mode                         : Lossy
  45. Stream size                              : 166 MiB (2%)
  46. Language                                 : English
  47. Service kind                             : Complete Main
  48. Default                                  : Yes
  49. Forced                                   : No
  50. Text #1
  51. ID                                       : 3
  52. Format                                   : UTF-8
  53. Codec ID                                 : S_TEXT/UTF8
  54. Codec ID/Info                            : UTF-8 Plain Text
  55. Duration                                 : 1 h 34 min
  56. Bit rate                                 : 62 b/s
  57. Count of elements                        : 1410
  58. Stream size                              : 43.3 KiB (0%)
  59. Language                                 : English
  60. Default                                  : No
  61. Forced                                   : No
  62. Text #2
  63. ID                                       : 4
  64. Format                                   : UTF-8
  65. Codec ID                                 : S_TEXT/UTF8
  66. Codec ID/Info                            : UTF-8 Plain Text
  67. Duration                                 : 1 h 36 min
  68. Bit rate                                 : 60 b/s
  69. Count of elements                        : 1421
  70. Stream size                              : 42.9 KiB (0%)
  71. Title                                    : SDH
  72. Language                                 : English
  73. Default                                  : No
  74. Forced                                   : No
复制代码






                                       
                                       

                                       
                                       
                                       




回复

使用道具 举报

懒得打字嘛,点击右侧快捷回复 【右侧内容,后台自定义】
您需要登录后才可以回帖 登录 | 立即加入

本版积分规则

Archiver|小黑屋| 蓝光电影网 |网站地图

Copyright © 2021 Comsenz Inc. Powered by 蓝光电影网

蓝光电影网

本站内容由用户自主分享和转载自互联网,转载目的在于传递更多信息,并不代表本网赞同其观点和对其真实性负责。

如有侵权、违反国家法律政策行为,请联系我们,我们会第一时间及时清除和处理!

举报反馈邮箱:[email protected]

快速回复 返回顶部 返回列表