找回密码

蓝光电影网

查看: 11|回复: 0

[剧情] 夏尔之存亡 Charles.Dead.or.Alive.1969.FRENCH.1080p.AMZN.WEBRip.DDP2.0.x264-TEPES 6.61GB

[复制链接]
蓝光币
382
发表于 2021-8-20 00:45:30 | 显示全部楼层 |阅读模式


◎译  名 夏尔之生死 / Charles, Dead or Alive
◎片  名 Charles mort ou vif
◎年  代 1969
◎产  地 瑞士
◎类  别 剧情
◎语  言 法语
◎上映日期 1970-01-29
◎IMDb评分  7.2/10 from 290 users
◎IMDb链接  https://www.imdb.com/title/tt0064153
◎豆瓣评分 0/10 from 0 users
◎豆瓣链接 https://movie.douban.com/subject/3023852/
◎片  长 93 分钟
◎导  演 阿兰·泰纳 Alain Tanner
◎编  剧 阿兰·泰纳 Alain Tanner
◎主  演 弗朗索瓦·西蒙 Fran?ois Simon
       Robert Marcel
       Marie-Claire Dufour

◎标  签 瑞士 | 阿兰·泰纳 | AlainTanner | Alain_Tanner | 瑞士电影 | 1969 | 1960s | 剧情
◎简  介

  
  本片获洛加诺电影节金豹奖
  ◎ 简  介:
  瑞士导演Alain Tanner的第一部故事片。1968年,导演曾目击了5月的巴黎陌头气象。他对那些年轻示威者不很感爱好,但却被那些游行队伍中的年长者所感动。所以他拍摄了这部电影,报告了一个从资产阶级舒适生活中退出的老头子的故事。影片带有鲜明的1960年月色彩。
  故事的配角 Charles 是一个50岁的贩子,他继续了家属产业,成为公司老板。在公司的百年大庆上,他似乎一点都兴奋不起来,反而看上去一脸沮丧。本来这人与一般本钱家分歧,他对劳动阶级抱有怜悯心,此时他担忧起工场里的工人来。
  由于工作需要,Charles经常接管电视采访。而就在一次采访竣事后,他抛开自己的舒适生活和忙碌买卖,离家出走了。
  很快他就碰到了同道中人,一对无政府主义男女。他们是那种1960年月典型的生活在中产阶级家庭的叛逆青年。后来男青年还把他的汽车推下了绝壁,以示拒绝物资享用。Charles搬进了他们的陋室,成天念书思考,会商世事。女儿看到父亲跟那对男女呆在一路,很是兴奋他能跟自己同享自在思惟的兴趣。
  但他的儿子却很不认同他们。他雇人找到了父亲,并把父亲送进了精神医院。即使上了车,Charles也没忘记向儿子宣扬他的幸运观。
  这部电影最大的意义就在于其鲜明的时代特点。那时对产业社会的批评已经不但仅是哲学家的事,常识青年以现实行动投入其中。理想主义具有了史无前例的坚固根本,但主传播统的干涉总是会让理想幻灭。很难设想,Charles假如没有被儿子找到的话,工作会往怎样的偏向成长。
  1. Video
  2. ID                                       : 1
  3. Format                                   : AVC
  4. Format/Info                              : Advanced Video Codec
  5. Format profile                           : [email protected]
  6. Format settings                          : CABAC / 4 Ref Frames
  7. Format settings, CABAC                   : Yes
  8. Format settings, Reference frames        : 4 frames
  9. Codec ID                                 : V_MPEG4/ISO/AVC
  10. Duration                                 : 1 h 34 min
  11. Bit rate mode                            : Constant
  12. Bit rate                                 : 10 000 kb/s
  13. Width                                    : 1 792 pixels
  14. Height                                   : 1 080 pixels
  15. Display aspect ratio                     : 5:3
  16. Frame rate mode                          : Constant
  17. Frame rate                               : 24.000 FPS
  18. Color space                              : YUV
  19. Chroma subsampling                       : 4:2:0
  20. Bit depth                                : 8 bits
  21. Scan type                                : Progressive
  22. Bits/(Pixel*Frame)                       : 0.215
  23. Stream size                              : 6.46 GiB (98%)
  24. Default                                  : Yes
  25. Forced                                   : No
  26. Color range                              : Limited
  27. Color primaries                          : BT.709
  28. Transfer characteristics                 : BT.709
  29. Matrix coefficients                      : BT.709
  30. Audio
  31. ID                                       : 2
  32. Format                                   : E-AC-3
  33. Format/Info                              : Enhanced AC-3
  34. Commercial name                          : Dolby Digital Plus
  35. Codec ID                                 : A_EAC3
  36. Duration                                 : 1 h 34 min
  37. Bit rate mode                            : Constant
  38. Bit rate                                 : 224 kb/s
  39. Channel(s)                               : 2 channels
  40. Channel layout                           : L R
  41. Sampling rate                            : 48.0 kHz
  42. Frame rate                               : 31.250 FPS (1536 SPF)
  43. Compression mode                         : Lossy
  44. Stream size                              : 151 MiB (2%)
  45. Language                                 : French
  46. Service kind                             : Complete Main
  47. Default                                  : Yes
  48. Forced                                   : No
  49. Text #1
  50. ID                                       : 3
  51. Format                                   : UTF-8
  52. Codec ID                                 : S_TEXT/UTF8
  53. Codec ID/Info                            : UTF-8 Plain Text
  54. Duration                                 : 1 h 33 min
  55. Bit rate                                 : 51 b/s
  56. Count of elements                        : 1081
  57. Stream size                              : 35.2 KiB (0%)
  58. Language                                 : English
  59. Default                                  : No
  60. Forced                                   : No
  61. Text #2
  62. ID                                       : 4
  63. Format                                   : UTF-8
  64. Codec ID                                 : S_TEXT/UTF8
  65. Codec ID/Info                            : UTF-8 Plain Text
  66. Duration                                 : 1 h 33 min
  67. Bit rate                                 : 57 b/s
  68. Count of elements                        : 1089
  69. Stream size                              : 39.1 KiB (0%)
  70. Language                                 : German
  71. Default                                  : No
  72. Forced                                   : No
复制代码






                                       
                                       

                                       
                                       
                                       




回复

使用道具 举报

懒得打字嘛,点击右侧快捷回复 【右侧内容,后台自定义】
您需要登录后才可以回帖 登录 | 立即加入

本版积分规则

Archiver|小黑屋| 蓝光电影网 |网站地图

Copyright © 2021 Comsenz Inc. Powered by 蓝光电影网

蓝光电影网

本站内容由用户自主分享和转载自互联网,转载目的在于传递更多信息,并不代表本网赞同其观点和对其真实性负责。

如有侵权、违反国家法律政策行为,请联系我们,我们会第一时间及时清除和处理!

举报反馈邮箱:[email protected]

快速回复 返回顶部 返回列表