找回密码

蓝光电影网

查看: 7|回复: 0

[剧情] 迪斯科/跳起迪斯科 Disco.2019.NORWEGIAN.ENSUBBED.1080p.CRAV.WEBRip.DD5.1.x264-NTb 3.89GB

[复制链接]
蓝光币
426
发表于 2021-8-20 00:45:36 | 显示全部楼层 |阅读模式


◎译  名 迪斯科 / 跳起迪斯科
◎片  名 Disco
◎年  代 2019
◎产  地 挪威
◎类  别 剧情
◎语  言 挪威语
◎上映日期 2019-09(多伦多国际电影节) / 2019-10-04(挪威)
◎IMDb评分  5.6/10 from 378 users
◎IMDb链接  https://www.imdb.com/title/tt10864024
◎豆瓣评分 0/10 from 0 users
◎豆瓣链接 https://movie.douban.com/subject/34800440/
◎片  长 94分钟
◎导  演 Jorunn Myklebust Syversen
◎主  演 约瑟芬·弗里达·佩特森 Josefine Frida Pettersen
       尼克莱·克莱夫·布洛奇 Nicolai Cleve Broch
       Kj?rsti Odden Skjeldal
       安德莉亚·巴伦·郝威格 Andrea Br?in Hovig
       Espen Klouman H?iner

◎标  签 挪威 | JosefineFrida | 女神 | 【挪威】 | 2019 | TIFF2019 | P-TokyoA入围主比赛 | P-SanSebastianC新导演单元
◎简  介

  
  On the surface, everything seems perfect. 19 year old Mirjam is the stepdaughter of the charismatic pastor of an evangelical movement called The Freedom. As a world champion in disco freestyle dancing and leader of the youth group in the congregation, she is the pride of the church. Whilst defending her world title, she collapses on stage. This makes her start to question her faith. Her family's solution is for her to be a better believer. Mirjam tries, but her body continues to fail her. Frustrated by the feeling of not being seen and in search of answers, she is drawn to a a stricter, more conservative congregation. Secretly she leaves for their summer camp
◎获奖情况  
  第32届东京国际电影节(2019)
  主比赛单元 最好影片(提名) Jorunn Myklebust Syversen
  第67届圣塞巴斯蒂安国际电影节(2019)
  最好新导演(提名) Jorunn Myklebust Syversen
  1. Video
  2. ID                                       : 1
  3. Format                                   : AVC
  4. Format/Info                              : Advanced Video Codec
  5. Format profile                           : [email protected]
  6. Format settings                          : CABAC / 4 Ref Frames
  7. Format settings, CABAC                   : Yes
  8. Format settings, Reference frames        : 4 frames
  9. Codec ID                                 : V_MPEG4/ISO/AVC
  10. Duration                                 : 1 h 34 min
  11. Bit rate                                 : 5 487 kb/s
  12. Width                                    : 1 920 pixels
  13. Height                                   : 1 080 pixels
  14. Display aspect ratio                     : 16:9
  15. Frame rate mode                          : Constant
  16. Frame rate                               : 23.976 (24000/1001/189150) FPS
  17. Color space                              : YUV
  18. Chroma subsampling                       : 4:2:0
  19. Bit depth                                : 8 bits
  20. Scan type                                : Progressive
  21. Bits/(Pixel*Frame)                       : 0.110
  22. Stream size                              : 3.64 GiB (93%)
  23. Default                                  : Yes
  24. Forced                                   : No
  25. Color range                              : Limited
  26. Color primaries                          : BT.709
  27. Transfer characteristics                 : BT.709
  28. Matrix coefficients                      : BT.709
  29. Audio
  30. ID                                       : 2
  31. Format                                   : AC-3
  32. Format/Info                              : Audio Coding 3
  33. Commercial name                          : Dolby Digital
  34. Codec ID                                 : A_AC3
  35. Duration                                 : 1 h 34 min
  36. Bit rate mode                            : Constant
  37. Bit rate                                 : 384 kb/s
  38. Channel(s)                               : 6 channels
  39. Channel layout                           : L R C LFE Ls Rs
  40. Sampling rate                            : 48.0 kHz
  41. Frame rate                               : 31.250 FPS (1536 SPF)
  42. Bit depth                                : 16 bits
  43. Compression mode                         : Lossy
  44. Stream size                              : 261 MiB (7%)
  45. Language                                 : Norwegian
  46. Service kind                             : Complete Main
  47. Default                                  : Yes
  48. Forced                                   : No
  49. Text
  50. ID                                       : 3
  51. Format                                   : UTF-8
  52. Codec ID                                 : S_TEXT/UTF8
  53. Codec ID/Info                            : UTF-8 Plain Text
  54. Duration                                 : 1 h 34 min
  55. Bit rate                                 : 29 b/s
  56. Count of elements                        : 958
  57. Stream size                              : 20.8 KiB (0%)
  58. Title                                    : SDH
  59. Language                                 : English
  60. Default                                  : No
  61. Forced                                   : No
复制代码






                                       
                                       

                                       
                                       
                                       




回复

使用道具 举报

懒得打字嘛,点击右侧快捷回复 【右侧内容,后台自定义】
您需要登录后才可以回帖 登录 | 立即加入

本版积分规则

Archiver|小黑屋| 蓝光电影网 |网站地图

Copyright © 2021 Comsenz Inc. Powered by 蓝光电影网

蓝光电影网

本站内容由用户自主分享和转载自互联网,转载目的在于传递更多信息,并不代表本网赞同其观点和对其真实性负责。

如有侵权、违反国家法律政策行为,请联系我们,我们会第一时间及时清除和处理!

举报反馈邮箱:[email protected]

快速回复 返回顶部 返回列表