找回密码

蓝光电影网

查看: 13|回复: 0

[剧情] 尼罗河圣母 Our.Lady.Of.The.Nile.2019.FRENCH.ENSUBBED.1080p.CRAV.WEBRip.DD5.1.x264-NTb 3.22GB

[复制链接]
蓝光币
382
发表于 2021-8-20 00:45:41 | 显示全部楼层 |阅读模式


◎译  名 尼罗河圣母 / Our Lady of the Nile
◎片  名 Notre-Dame du Nil
◎年  代 2019
◎产  地 法国 / 比利时 / 卢旺达
◎类  别 剧情
◎语  言 法语 / 卢旺达语
◎上映日期 2020-02-05(法国)
◎IMDb评分  3.0/10 from 174 users
◎IMDb链接  https://www.imdb.com/title/tt8690948
◎豆瓣评分 0/10 from 0 users
◎豆瓣链接 https://movie.douban.com/subject/30465758/
◎片  长 93分钟
◎导  演 阿提克·拉希米 Atiq Rahimi
◎编  剧 Scholastique Mukasonga / 阿提克·拉希米 Atiq Rahimi / Ramata Sy
◎主  演 Amanda Mugabezaki
       Albina Kirenga
       Malaika Uwamahoro
       Clariella Bizimana
       Belinda Rubango
       Ange Elsie Ineza
       Kelly Umuganwa Teta
       帕斯卡尔·格雷戈里 Pascal Greggory
       Carole Trevoux
       Alida Ngabonziza
       Solange Ngabonziza
       Khadja Nin
       Florida Uwera

◎标  签 卢旺达 | 法国 | 电影 | 法国电影 | 比利时电影 | 柏林电影节 | 卢旺达电影 | P-BerlinF新生代单元
◎简  介

  
  “Where do our tears come from? Some say they are the sap of our suffering and our broken hearts. Others say our tears are the waters of innocence, to cleanse the land of a Thousand and One Hills.”
  Rwanda, 1973: high up in the mountains, at the source of the Nile, a black statue of the Virgin Mary watches over a Catholic boarding school for girls. Here, during days filled with classes, mass and practical work, the daughters of politicians, officers and businessmen are educated to one day become productive members of the country’s elite. Whether Hutu or Tutsi, the girls share their curiosity, dreams and joie de vivre. However, the social dynamics and increasing conflicts that characterise the school microcosm mirror the ravages wrought by the colonial order. Deeply symbolic images hint at the genocidal violence that would later engulf the entire country in 1994.
◎获奖情况  
  第70届柏林国际电影节(2020)
  水晶熊奖 阿提克·拉希米
  1. Video
  2. ID                                       : 1
  3. Format                                   : AVC
  4. Format/Info                              : Advanced Video Codec
  5. Format profile                           : [email protected]
  6. Format settings                          : CABAC / 4 Ref Frames
  7. Format settings, CABAC                   : Yes
  8. Format settings, Reference frames        : 4 frames
  9. Codec ID                                 : V_MPEG4/ISO/AVC
  10. Duration                                 : 1 h 33 min
  11. Bit rate                                 : 4 564 kb/s
  12. Width                                    : 1 920 pixels
  13. Height                                   : 1 080 pixels
  14. Display aspect ratio                     : 16:9
  15. Frame rate mode                          : Constant
  16. Frame rate                               : 23.976 (24000/1001/189150) FPS
  17. Color space                              : YUV
  18. Chroma subsampling                       : 4:2:0
  19. Bit depth                                : 8 bits
  20. Scan type                                : Progressive
  21. Bits/(Pixel*Frame)                       : 0.092
  22. Stream size                              : 2.97 GiB (92%)
  23. Default                                  : Yes
  24. Forced                                   : No
  25. Color range                              : Limited
  26. Color primaries                          : BT.709
  27. Transfer characteristics                 : BT.709
  28. Matrix coefficients                      : BT.709
  29. Audio
  30. ID                                       : 2
  31. Format                                   : AC-3
  32. Format/Info                              : Audio Coding 3
  33. Commercial name                          : Dolby Digital
  34. Codec ID                                 : A_AC3
  35. Duration                                 : 1 h 33 min
  36. Bit rate mode                            : Constant
  37. Bit rate                                 : 384 kb/s
  38. Channel(s)                               : 6 channels
  39. Channel layout                           : L R C LFE Ls Rs
  40. Sampling rate                            : 48.0 kHz
  41. Frame rate                               : 31.250 FPS (1536 SPF)
  42. Bit depth                                : 16 bits
  43. Compression mode                         : Lossy
  44. Stream size                              : 256 MiB (8%)
  45. Language                                 : French
  46. Service kind                             : Complete Main
  47. Default                                  : Yes
  48. Forced                                   : No
  49. Text
  50. ID                                       : 3
  51. Format                                   : UTF-8
  52. Codec ID                                 : S_TEXT/UTF8
  53. Codec ID/Info                            : UTF-8 Plain Text
  54. Duration                                 : 1 h 33 min
  55. Bit rate                                 : 27 b/s
  56. Count of elements                        : 1007
  57. Stream size                              : 18.7 KiB (0%)
  58. Title                                    : SDH
  59. Language                                 : English
  60. Default                                  : No
  61. Forced                                   : No
复制代码





                                       
                                       

                                       
                                       
                                       




回复

使用道具 举报

懒得打字嘛,点击右侧快捷回复 【右侧内容,后台自定义】
您需要登录后才可以回帖 登录 | 立即加入

本版积分规则

Archiver|小黑屋| 蓝光电影网 |网站地图

Copyright © 2021 Comsenz Inc. Powered by 蓝光电影网

蓝光电影网

本站内容由用户自主分享和转载自互联网,转载目的在于传递更多信息,并不代表本网赞同其观点和对其真实性负责。

如有侵权、违反国家法律政策行为,请联系我们,我们会第一时间及时清除和处理!

举报反馈邮箱:[email protected]

快速回复 返回顶部 返回列表