找回密码

蓝光电影网

查看: 18|回复: 0

[剧情] 索莱/太阳 Sole.2019.ITALIAN.ENSUBBED.1080p.CRAV.WEBRip.DD5.1.x264-NTb 4.39GB

[复制链接]
蓝光币
426
发表于 2021-8-20 00:45:48 | 显示全部楼层 |阅读模式


◎译  名 索莱 / 太阳 / 孤单鼓噪(台)
◎片  名 Sole
◎年  代 2019
◎产  地 意大利
◎类  别 剧情
◎语  言 意大利语
◎上映日期 2019-08-29(威尼斯电影节) / 2019-10-24(意大利)
◎IMDb评分  5.1/10 from 299 users
◎IMDb链接  https://www.imdb.com/title/tt9648994
◎豆瓣评分 7.8/10 from 280 users
◎豆瓣链接 https://movie.douban.com/subject/34608304/
◎片  长 100分钟
◎导  演 卡洛·西罗尼 Carlo Sironi
◎编  剧 Antonio Manca / Giulia Moriggi / 卡洛·西罗尼 Carlo Sironi
◎主  演 克劳迪奥·塞加卢西奥 Claudio Segaluscio
       Sandra Drzymalska
       Marco Felli
       维塔利亚诺·特雷维森 Vitaliano Trevisan
       Bruno Buzzi
       芭芭拉·朗奇 Barbara Ronchi

◎标  签 意大利 | 2019 | 意大利电影 | 剧情 | 恋爱 | (L平遥-小城之春) | 威尼斯电影节 | 青年
◎简  介

  
  两个不识相互的青少年,少男整天沉迷电玩,少女则是身怀六甲,孤独是两人唯一的共通点;为了金钱,他们钻律法缝隙,假扮夫妻,好让婴孩未来过继给少男不孕的叔叔。疏离的两人,虽然共处一室还是少有交集;随着婴儿意外早产,他们被迫拉近间隔,多了怀抱里的婴孩,生活忽然有了温度。在满室寂 寞当中,爱的声音已悄悄在耳边鼓噪。
◎获奖情况  
  第76届威尼斯电影节(2019)
  地平线单元奖 最好影片(提名) 卡洛·西罗尼
  第65届意大利大卫奖(2020)
  最好新导演(提名) 卡洛·西罗尼
  第3届平遥国际电影展(2019)
  影展之最单元最受接待影片 卡洛·西罗尼
  1. Video
  2. ID                                       : 1
  3. Format                                   : AVC
  4. Format/Info                              : Advanced Video Codec
  5. Format profile                           : [email protected]
  6. Format settings                          : CABAC / 4 Ref Frames
  7. Format settings, CABAC                   : Yes
  8. Format settings, Reference frames        : 4 frames
  9. Codec ID                                 : V_MPEG4/ISO/AVC
  10. Duration                                 : 1 h 42 min
  11. Bit rate                                 : 5 740 kb/s
  12. Width                                    : 1 920 pixels
  13. Height                                   : 1 080 pixels
  14. Display aspect ratio                     : 16:9
  15. Frame rate mode                          : Constant
  16. Frame rate                               : 23.976 (24000/1001/189150) FPS
  17. Color space                              : YUV
  18. Chroma subsampling                       : 4:2:0
  19. Bit depth                                : 8 bits
  20. Scan type                                : Progressive
  21. Bits/(Pixel*Frame)                       : 0.115
  22. Stream size                              : 4.12 GiB (94%)
  23. Default                                  : Yes
  24. Forced                                   : No
  25. Color range                              : Limited
  26. Color primaries                          : BT.709
  27. Transfer characteristics                 : BT.709
  28. Matrix coefficients                      : BT.709
  29. Audio
  30. ID                                       : 2
  31. Format                                   : AC-3
  32. Format/Info                              : Audio Coding 3
  33. Commercial name                          : Dolby Digital
  34. Codec ID                                 : A_AC3
  35. Duration                                 : 1 h 42 min
  36. Bit rate mode                            : Constant
  37. Bit rate                                 : 384 kb/s
  38. Channel(s)                               : 6 channels
  39. Channel layout                           : L R C LFE Ls Rs
  40. Sampling rate                            : 48.0 kHz
  41. Frame rate                               : 31.250 FPS (1536 SPF)
  42. Bit depth                                : 16 bits
  43. Compression mode                         : Lossy
  44. Stream size                              : 282 MiB (6%)
  45. Language                                 : Italian
  46. Service kind                             : Complete Main
  47. Default                                  : Yes
  48. Forced                                   : No
  49. Text
  50. ID                                       : 3
  51. Format                                   : UTF-8
  52. Codec ID                                 : S_TEXT/UTF8
  53. Codec ID/Info                            : UTF-8 Plain Text
  54. Duration                                 : 1 h 42 min
  55. Bit rate                                 : 20 b/s
  56. Count of elements                        : 950
  57. Stream size                              : 15.2 KiB (0%)
  58. Title                                    : SDH
  59. Language                                 : English
  60. Default                                  : No
  61. Forced                                   : No
复制代码






                                       
                                       

                                       
                                       
                                       




回复

使用道具 举报

懒得打字嘛,点击右侧快捷回复 【右侧内容,后台自定义】
您需要登录后才可以回帖 登录 | 立即加入

本版积分规则

Archiver|小黑屋| 蓝光电影网 |网站地图

Copyright © 2021 Comsenz Inc. Powered by 蓝光电影网

蓝光电影网

本站内容由用户自主分享和转载自互联网,转载目的在于传递更多信息,并不代表本网赞同其观点和对其真实性负责。

如有侵权、违反国家法律政策行为,请联系我们,我们会第一时间及时清除和处理!

举报反馈邮箱:[email protected]

快速回复 返回顶部 返回列表