找回密码

蓝光电影网

查看: 7|回复: 0

[剧情] 我们的身体 Our.Body.2018.KOREAN.1080p.AMZN.WEBRip.DDP2.0.x264-alfaHD 3.94GB

[复制链接]
蓝光币
382
发表于 2021-8-20 00:46:09 | 显示全部楼层 |阅读模式


◎译  名 我们的身材 / Our Body / 切近你的身影(港)
◎片  名 ????
◎年  代 2018
◎产  地 韩国
◎类  别 剧情
◎语  言 韩语
◎上映日期 2018-09-14(多伦多电影节) / 2019-09-26(韩国)
◎IMDb评分  6.1/10 from 83 users
◎IMDb链接  https://www.imdb.com/title/tt8922682
◎豆瓣评分 0/10 from 0 users
◎豆瓣链接 https://movie.douban.com/subject/30315207/
◎片  长 95分钟
◎导  演 韩家岚 Ka-ram Han
◎编  剧 韩家岚 Ka-ram Han
◎主  演 崔嬉序 Moon Choi
       安智惠 Ji-hye Ahn
       金正英 Jung-young Kim
       李在仁 Jae-in Lee
       卢·苏珊娜 Noh Susanna
       吴东旻 Dong-min Oh
       崔俊英 Joon-young Choi

◎标  签 韩国 | 韩国电影 | 2019 | hkiff43 | BIFF | 韓家嵐 | 电影 | 韓國電影
◎简  介

  
  影片首要报告的是持续考了8年公务员的子英(崔嬉序 饰)在备考的这些年一向轻忽自己的身心健康,在一次偶然碰见奔驰的女子玄珠(安聪明 饰)后,遂起头和她一路跑步并逐步敞高兴扉走向里面天下的故事。
◎获奖情况  
  第23届釜山国际电影节(2018)
  年度演员 年度女演员 崔嬉序
  1. Video
  2. ID                                       : 1
  3. Format                                   : AVC
  4. Format/Info                              : Advanced Video Codec
  5. Format profile                           : [email protected]
  6. Format settings                          : CABAC / 4 Ref Frames
  7. Format settings, CABAC                   : Yes
  8. Format settings, Reference frames        : 4 frames
  9. Codec ID                                 : V_MPEG4/ISO/AVC
  10. Duration                                 : 1 h 35 min
  11. Bit rate mode                            : Constant
  12. Bit rate                                 : 5 702 kb/s
  13. Nominal bit rate                         : 10 000 kb/s
  14. Width                                    : 1 920 pixels
  15. Height                                   : 800 pixels
  16. Display aspect ratio                     : 2.40:1
  17. Frame rate mode                          : Constant
  18. Frame rate                               : 23.976 (24000/1001/189150) FPS
  19. Color space                              : YUV
  20. Chroma subsampling                       : 4:2:0
  21. Bit depth                                : 8 bits
  22. Scan type                                : Progressive
  23. Bits/(Pixel*Frame)                       : 0.155
  24. Stream size                              : 3.79 GiB (96%)
  25. Default                                  : Yes
  26. Forced                                   : No
  27. Color range                              : Limited
  28. Color primaries                          : BT.709
  29. Transfer characteristics                 : BT.709
  30. Matrix coefficients                      : BT.709
  31. Audio
  32. ID                                       : 2
  33. Format                                   : E-AC-3
  34. Format/Info                              : Enhanced AC-3
  35. Commercial name                          : Dolby Digital Plus
  36. Codec ID                                 : A_EAC3
  37. Duration                                 : 1 h 35 min
  38. Bit rate mode                            : Constant
  39. Bit rate                                 : 224 kb/s
  40. Channel(s)                               : 2 channels
  41. Channel layout                           : L R
  42. Sampling rate                            : 48.0 kHz
  43. Frame rate                               : 31.250 FPS (1536 SPF)
  44. Compression mode                         : Lossy
  45. Stream size                              : 152 MiB (4%)
  46. Language                                 : Korean
  47. Service kind                             : Complete Main
  48. Default                                  : Yes
  49. Forced                                   : No
  50. Text #1
  51. ID                                       : 3
  52. Format                                   : UTF-8
  53. Codec ID                                 : S_TEXT/UTF8
  54. Codec ID/Info                            : UTF-8 Plain Text
  55. Duration                                 : 1 h 26 min
  56. Bit rate                                 : 29 b/s
  57. Count of elements                        : 653
  58. Stream size                              : 18.7 KiB (0%)
  59. Language                                 : English
  60. Default                                  : No
  61. Forced                                   : No
  62. Text #2
  63. ID                                       : 4
  64. Format                                   : UTF-8
  65. Codec ID                                 : S_TEXT/UTF8
  66. Codec ID/Info                            : UTF-8 Plain Text
  67. Duration                                 : 1 h 26 min
  68. Bit rate                                 : 29 b/s
  69. Count of elements                        : 653
  70. Stream size                              : 18.7 KiB (0%)
  71. Title                                    : SDH
  72. Language                                 : English
  73. Default                                  : No
  74. Forced                                   : No
复制代码






                                       
                                       

                                       
                                       
                                       




回复

使用道具 举报

懒得打字嘛,点击右侧快捷回复 【右侧内容,后台自定义】
您需要登录后才可以回帖 登录 | 立即加入

本版积分规则

Archiver|小黑屋| 蓝光电影网 |网站地图

Copyright © 2021 Comsenz Inc. Powered by 蓝光电影网

蓝光电影网

本站内容由用户自主分享和转载自互联网,转载目的在于传递更多信息,并不代表本网赞同其观点和对其真实性负责。

如有侵权、违反国家法律政策行为,请联系我们,我们会第一时间及时清除和处理!

举报反馈邮箱:[email protected]

快速回复 返回顶部 返回列表