找回密码

蓝光电影网

查看: 10|回复: 0

[剧情] 击毙杰西·詹姆斯/枪杀侠盗 I.Shot.Jesse.James.1949.1080p.HMAX.WEBRip.DD2.0.x264-QOQ 4.90GB

[复制链接]
蓝光币
382
发表于 2021-8-20 00:46:13 | 显示全部楼层 |阅读模式


◎译  名 击毙杰西·詹姆斯 / 枪杀侠盗
◎片  名 I Shot Jesse James
◎年  代 1949
◎产  地 美国
◎类  别 剧情 / 恋爱 / 历史
◎语  言 英语
◎上映日期 1949-02-26
◎IMDb评分  6.8/10 from 1919 users
◎IMDb链接  https://www.imdb.com/title/tt0041497
◎豆瓣评分 7.5/10 from 217 users
◎豆瓣链接 https://movie.douban.com/subject/2119430/
◎片  长 81分钟
◎导  演 Samuel Fuller
◎编  剧 Samuel Fuller
◎主  演 Preston Foster
       Barbara Britton
       John Ireland

◎标  签 美国 | 塞缪尔·富勒 | SamuelFuller | Samuel_Fuller | 西部 | 1949 | 美国电影 | 西部片
◎简  介

  
  在经年撰写了著作等身的犯罪报道、电影剧本及低俗小说以后,Fuller与John Irelan合作拍摄了他的童贞座《击毙耶西?詹姆斯》。这出孤郁的叙事诗的配角是John Irelan饰演的Robert Ford,他因出售恶名昭著的朋友Jesse James而倍受重创。《击毙耶西?詹姆斯》是一幅吞并了尖锐与礼让的画像。他掠夺的懊悔和精神上的罪恶引人注视。而它也是这个独行其事的导演的开门红。
  1. Video
  2. ID                                       : 1
  3. Format                                   : AVC
  4. Format/Info                              : Advanced Video Codec
  5. Format profile                           : [email protected]
  6. Format settings                          : CABAC / 4 Ref Frames
  7. Format settings, CABAC                   : Yes
  8. Format settings, Reference frames        : 4 frames
  9. Codec ID                                 : V_MPEG4/ISO/AVC
  10. Duration                                 : 1 h 21 min
  11. Bit rate mode                            : Variable
  12. Bit rate                                 : 8 224 kb/s
  13. Maximum bit rate                         : 12.4 Mb/s
  14. Width                                    : 1 920 pixels
  15. Height                                   : 1 080 pixels
  16. Display aspect ratio                     : 16:9
  17. Frame rate mode                          : Constant
  18. Frame rate                               : 23.976 (24000/1001/189150) FPS
  19. Color space                              : YUV
  20. Chroma subsampling                       : 4:2:0
  21. Bit depth                                : 8 bits
  22. Scan type                                : Progressive
  23. Bits/(Pixel*Frame)                       : 0.165
  24. Stream size                              : 4.68 GiB (96%)
  25. Default                                  : Yes
  26. Forced                                   : No
  27. Audio
  28. ID                                       : 2
  29. Format                                   : AC-3
  30. Format/Info                              : Audio Coding 3
  31. Commercial name                          : Dolby Digital
  32. Codec ID                                 : A_AC3
  33. Duration                                 : 1 h 21 min
  34. Bit rate mode                            : Constant
  35. Bit rate                                 : 384 kb/s
  36. Channel(s)                               : 2 channels
  37. Channel layout                           : L R
  38. Sampling rate                            : 48.0 kHz
  39. Frame rate                               : 31.250 FPS (1536 SPF)
  40. Bit depth                                : 16 bits
  41. Compression mode                         : Lossy
  42. Stream size                              : 224 MiB (4%)
  43. Language                                 : English
  44. Service kind                             : Complete Main
  45. Default                                  : Yes
  46. Forced                                   : No
  47. Text
  48. ID                                       : 3
  49. Format                                   : UTF-8
  50. Codec ID                                 : S_TEXT/UTF8
  51. Codec ID/Info                            : UTF-8 Plain Text
  52. Duration                                 : 1 h 21 min
  53. Bit rate                                 : 52 b/s
  54. Count of elements                        : 1169
  55. Stream size                              : 31.0 KiB (0%)
  56. Title                                    : English CC
  57. Language                                 : English
  58. Default                                  : No
  59. Forced                                   : No
复制代码






                                       
                                       

                                       
                                       
                                       




回复

使用道具 举报

懒得打字嘛,点击右侧快捷回复 【右侧内容,后台自定义】
您需要登录后才可以回帖 登录 | 立即加入

本版积分规则

Archiver|小黑屋| 蓝光电影网 |网站地图

Copyright © 2021 Comsenz Inc. Powered by 蓝光电影网

蓝光电影网

本站内容由用户自主分享和转载自互联网,转载目的在于传递更多信息,并不代表本网赞同其观点和对其真实性负责。

如有侵权、违反国家法律政策行为,请联系我们,我们会第一时间及时清除和处理!

举报反馈邮箱:[email protected]

快速回复 返回顶部 返回列表