找回密码

蓝光电影网

查看: 10|回复: 0

[剧情] 耶素斯 Jesus.2016.SPANISH.1080p.AMZN.WEBRip.DDP5.1.x264-alfaHD 5.69GB

[复制链接]
蓝光币
426
发表于 2021-8-20 00:46:19 | 显示全部楼层 |阅读模式


◎译  名 耶素斯 / Jesus
◎片  名 Jesús
◎年  代 2016
◎产  地 智利
◎类  别 剧情 / 同性
◎语  言 西班牙语
◎上映日期 2016-09-09
◎IMDb评分  6.0/10 from 311 users
◎IMDb链接  https://www.imdb.com/title/tt5932894
◎豆瓣评分 0/10 from 0 users
◎豆瓣链接 https://movie.douban.com/subject/26850361/
◎片  长 86分钟
◎导  演 Fernando Guzzoni
◎编  剧 Fernando Guzzoni
◎主  演 亚历山德罗·高克 Alejandro Goic
       Nicolás Durán

◎标  签 同性 | 智利 | 剧情 | 青春 | 露点 | 电影 | 2016 | 情色
◎简  介

  
  Santiago (Chile). Jesús (18) is in search of his identity. He dances with a Korean pop group and likes hanging out in public parks with his friends. He doesn't go to school or have a job. Since his mother died he lives with his father, Hector (53), in an apartment where the tv covers up their inability to communicate. One night, Jesús opens up to his father and confesses his involvement in an irreversible event. This shared knowledge forces them to join together for the first time.
◎获奖情况  
  第64届圣塞巴斯蒂安国际电影节(2016)
  金贝壳奖(提名)
  1. Video
  2. ID                                       : 1
  3. Format                                   : AVC
  4. Format/Info                              : Advanced Video Codec
  5. Format profile                           : [email protected]
  6. Format settings                          : CABAC / 4 Ref Frames
  7. Format settings, CABAC                   : Yes
  8. Format settings, Reference frames        : 4 frames
  9. Codec ID                                 : V_MPEG4/ISO/AVC
  10. Duration                                 : 1 h 21 min
  11. Bit rate mode                            : Constant
  12. Bit rate                                 : 9 391 kb/s
  13. Nominal bit rate                         : 10 000 kb/s
  14. Width                                    : 1 920 pixels
  15. Height                                   : 1 040 pixels
  16. Display aspect ratio                     : 1.85:1
  17. Frame rate mode                          : Constant
  18. Frame rate                               : 25.000 FPS
  19. Color space                              : YUV
  20. Chroma subsampling                       : 4:2:0
  21. Bit depth                                : 8 bits
  22. Scan type                                : Progressive
  23. Bits/(Pixel*Frame)                       : 0.188
  24. Stream size                              : 5.33 GiB (94%)
  25. Default                                  : Yes
  26. Forced                                   : No
  27. Color range                              : Limited
  28. Color primaries                          : BT.709
  29. Transfer characteristics                 : BT.709
  30. Matrix coefficients                      : BT.709
  31. Audio
  32. ID                                       : 2
  33. Format                                   : E-AC-3
  34. Format/Info                              : Enhanced AC-3
  35. Commercial name                          : Dolby Digital Plus
  36. Codec ID                                 : A_EAC3
  37. Duration                                 : 1 h 21 min
  38. Bit rate mode                            : Constant
  39. Bit rate                                 : 640 kb/s
  40. Channel(s)                               : 6 channels
  41. Channel layout                           : L R C LFE Ls Rs
  42. Sampling rate                            : 48.0 kHz
  43. Frame rate                               : 31.250 FPS (1536 SPF)
  44. Compression mode                         : Lossy
  45. Stream size                              : 372 MiB (6%)
  46. Language                                 : Spanish
  47. Service kind                             : Complete Main
  48. Default                                  : Yes
  49. Forced                                   : No
  50. Text #1
  51. ID                                       : 3
  52. Format                                   : UTF-8
  53. Codec ID                                 : S_TEXT/UTF8
  54. Codec ID/Info                            : UTF-8 Plain Text
  55. Duration                                 : 1 h 13 min
  56. Bit rate                                 : 26 b/s
  57. Count of elements                        : 589
  58. Stream size                              : 14.3 KiB (0%)
  59. Language                                 : English
  60. Default                                  : No
  61. Forced                                   : No
  62. Text #2
  63. ID                                       : 4
  64. Format                                   : UTF-8
  65. Codec ID                                 : S_TEXT/UTF8
  66. Codec ID/Info                            : UTF-8 Plain Text
  67. Duration                                 : 1 h 13 min
  68. Bit rate                                 : 26 b/s
  69. Count of elements                        : 589
  70. Stream size                              : 14.3 KiB (0%)
  71. Title                                    : SDH
  72. Language                                 : English
  73. Default                                  : No
  74. Forced                                   : No
复制代码






                                       
                                       

                                       
                                       
                                       




回复

使用道具 举报

懒得打字嘛,点击右侧快捷回复 【右侧内容,后台自定义】
您需要登录后才可以回帖 登录 | 立即加入

本版积分规则

Archiver|小黑屋| 蓝光电影网 |网站地图

Copyright © 2021 Comsenz Inc. Powered by 蓝光电影网

蓝光电影网

本站内容由用户自主分享和转载自互联网,转载目的在于传递更多信息,并不代表本网赞同其观点和对其真实性负责。

如有侵权、违反国家法律政策行为,请联系我们,我们会第一时间及时清除和处理!

举报反馈邮箱:[email protected]

快速回复 返回顶部 返回列表