找回密码

蓝光电影网

查看: 7|回复: 0

[剧情] 绝命鳄口 Black.Water.Abyss.2020.1080p.AMZN.WEBRip.DDP5.1.x264-NTG 5.77GB

[复制链接]
蓝光币
382
发表于 2021-8-20 00:46:26 | 显示全部楼层 |阅读模式


◎译  名 绝命鳄口 / Black Water: The Abyss / 黑水:深渊
◎片  名 Black Water: Abyss
◎年  代 2020
◎产  地 澳大利亚 / 美国
◎类  别 剧情 / 行动 / 可骇
◎语  言 英语
◎上映日期 2020-07-04(英国) / 2020-08-07(美国)
◎IMDb评分  5.4/10 from 86 users
◎IMDb链接  https://www.imdb.com/title/tt7978672
◎豆瓣评分 5.1/10 from 59 users
◎豆瓣链接 https://movie.douban.com/subject/34431448/
◎片  长 99分钟
◎导  演 安德鲁·陶克吉  Andrew Traucki
◎编  剧 约翰·莱德利 John Ridley / 莎拉·史姑娘 Sarah Smith
◎主  演 杰西卡·麦克娜美 Jessica McNamee
       卢克·米切尔 Luke Mitchell
       阿玛莉·沃德 Amali Ward
       安东尼·J·夏普 Anthony J. Sharpe
       本杰明·霍特杰斯 Benjamin Hoetjes
       J·玛 J Ma
       菊池润美 Rumi Kikuchi
       林恩·罗斯 Lynne Rose

◎标  签 惊悚 | 2020 | 灾难 | 美国 | 澳大利亞 | 可骇 | 行动 | 剧情
◎简  介

  
  一对喜好冒险的佳耦压服他们的朋友去摸索澳大利亚北部森林中一个从未有人踏入的洞窟系统。忽然狂风雨到临,大师决议进上天下洞窟出亡。不想大水冲进了洞窟,氧气含量逐步下降,大师被困在了一个完全未知的情况里。他们没有推测的是,湿润的空气和不竭上升的水位只是此次旅程最小的应战,大水还带来了最危险的捕食者:一群危险又饥饿的鳄鱼。当危险逐步升温,这群朋友之间相互隐瞒的奥秘渐渐被揭开,他们争持打架、相互变节,只为在这个险境中保存下来。
  1. Video
  2. ID                                       : 1
  3. Format                                   : AVC
  4. Format/Info                              : Advanced Video Codec
  5. Format profile                           : [email protected]
  6. Format settings                          : CABAC / 4 Ref Frames
  7. Format settings, CABAC                   : Yes
  8. Format settings, Reference frames        : 4 frames
  9. Codec ID                                 : V_MPEG4/ISO/AVC
  10. Duration                                 : 1 h 38 min
  11. Bit rate mode                            : Constant
  12. Bit rate                                 : 7 768 kb/s
  13. Nominal bit rate                         : 10 000 kb/s
  14. Width                                    : 1 920 pixels
  15. Height                                   : 800 pixels
  16. Display aspect ratio                     : 2.40:1
  17. Frame rate mode                          : Constant
  18. Frame rate                               : 23.976 (24000/1001/189150) FPS
  19. Color space                              : YUV
  20. Chroma subsampling                       : 4:2:0
  21. Bit depth                                : 8 bits
  22. Scan type                                : Progressive
  23. Bits/(Pixel*Frame)                       : 0.211
  24. Stream size                              : 5.33 GiB (92%)
  25. Default                                  : Yes
  26. Forced                                   : No
  27. Color range                              : Limited
  28. Color primaries                          : BT.709
  29. Transfer characteristics                 : BT.709
  30. Matrix coefficients                      : BT.709
  31. Audio
  32. ID                                       : 2
  33. Format                                   : E-AC-3
  34. Format/Info                              : Enhanced AC-3
  35. Commercial name                          : Dolby Digital Plus
  36. Codec ID                                 : A_EAC3
  37. Duration                                 : 1 h 38 min
  38. Bit rate mode                            : Constant
  39. Bit rate                                 : 640 kb/s
  40. Channel(s)                               : 6 channels
  41. Channel layout                           : L R C LFE Ls Rs
  42. Sampling rate                            : 48.0 kHz
  43. Frame rate                               : 31.250 FPS (1536 SPF)
  44. Compression mode                         : Lossy
  45. Stream size                              : 450 MiB (8%)
  46. Language                                 : English
  47. Service kind                             : Complete Main
  48. Default                                  : Yes
  49. Forced                                   : No
  50. Text #1
  51. ID                                       : 3
  52. Format                                   : UTF-8
  53. Codec ID                                 : S_TEXT/UTF8
  54. Codec ID/Info                            : UTF-8 Plain Text
  55. Duration                                 : 1 h 33 min
  56. Bit rate                                 : 24 b/s
  57. Count of elements                        : 785
  58. Stream size                              : 16.8 KiB (0%)
  59. Language                                 : English
  60. Default                                  : No
  61. Forced                                   : No
  62. Text #2
  63. ID                                       : 4
  64. Format                                   : UTF-8
  65. Codec ID                                 : S_TEXT/UTF8
  66. Codec ID/Info                            : UTF-8 Plain Text
  67. Duration                                 : 1 h 37 min
  68. Bit rate                                 : 28 b/s
  69. Count of elements                        : 985
  70. Stream size                              : 20.5 KiB (0%)
  71. Title                                    : SDH
  72. Language                                 : English
  73. Default                                  : No
  74. Forced                                   : No
复制代码






                                       
                                       

                                       
                                       
                                       




回复

使用道具 举报

懒得打字嘛,点击右侧快捷回复 【右侧内容,后台自定义】
您需要登录后才可以回帖 登录 | 立即加入

本版积分规则

Archiver|小黑屋| 蓝光电影网 |网站地图

Copyright © 2021 Comsenz Inc. Powered by 蓝光电影网

蓝光电影网

本站内容由用户自主分享和转载自互联网,转载目的在于传递更多信息,并不代表本网赞同其观点和对其真实性负责。

如有侵权、违反国家法律政策行为,请联系我们,我们会第一时间及时清除和处理!

举报反馈邮箱:[email protected]

快速回复 返回顶部 返回列表