找回密码

蓝光电影网

查看: 8|回复: 0

[剧情] 收税人 The.Tax.Collector.2020.1080p.WEB-DL.DD5.1.H264-FGT 3.61GB

[复制链接]
蓝光币
382
发表于 2021-8-20 00:46:54 | 显示全部楼层 |阅读模式


◎译  名 收税人 / Tax Collector / 收账人
◎片  名 The Tax Collector
◎年  代 2020
◎产  地 美国
◎类  别 剧情 / 惊悚 / 犯罪
◎语  言 英语
◎上映日期 2020-08-07(美国)
◎IMDb链接  https://www.imdb.com/title/tt8461224
◎豆瓣评分 0/10 from 0 users
◎豆瓣链接 https://movie.douban.com/subject/30254296/
◎导  演 大卫·阿耶 David Ayer
◎编  剧 大卫·阿耶 David Ayer
◎主  演 希亚·拉博夫 Shia LaBeouf
       拉娜·帕瑞娅 Lana Parrilla
       辛西娅·卡蒙娜 Cinthya Carmona
       艾尔皮迪娅·卡里洛 Elpidia Carrillo
       乔治·洛佩兹 George Lopez
       切尔茜·兰顿 Chelsea Rendon
       诺埃米·冈萨雷斯 Noemi Gonzalez
       布兰登·舒博 Brendan Schaub
       雷内?莫兰 Rene Moran
       胡安·卡洛斯·坎图 Juan Carlos Cantu
       鲍比·索托 Bobby Soto
       兰迪·冈萨雷斯 Randy Gonzalez
       Michelle Jubilee Gonzalez
       Jay Reeves
       Gabriela Flores
       Nayeli Esparza
       Lee Coc
       Valentina Latyna Plascencia
       Quinn Early

◎标  签 黑帮 | 犯罪 | 希亚·拉博夫 | 美国 | 大卫·阿耶 | 2020 | 美国电影 | 剧情
◎简  介

  
  Shia LaBeouf将与David Ayer再度合作《收税人》。
  电影报告男配角大卫·奎瓦斯(David Cuevas),他是一个垂青家庭的汉子,但工作却是为洛城黑帮高层收税的收账人。他与同伴Creeper穿越于城市之间收账,用各类方式逼人们掏钱,而欠账的则会遭到残暴的报复。但是,一位昔日仇敌的归来让奎瓦斯所爱的一切都堕入危险当中。
  1. Video
  2. ID                                       : 1
  3. Format                                   : AVC
  4. Format/Info                              : Advanced Video Codec
  5. Format profile                           : [email protected]
  6. Format settings                          : CABAC / 4 Ref Frames
  7. Format settings, CABAC                   : Yes
  8. Format settings, Reference frames        : 4 frames
  9. Codec ID                                 : V_MPEG4/ISO/AVC
  10. Duration                                 : 1 h 35 min
  11. Bit rate                                 : 5 039 kb/s
  12. Width                                    : 1 920 pixels
  13. Height                                   : 1 036 pixels
  14. Display aspect ratio                     : 1.85:1
  15. Frame rate mode                          : Constant
  16. Frame rate                               : 24.000 FPS
  17. Color space                              : YUV
  18. Chroma subsampling                       : 4:2:0
  19. Bit depth                                : 8 bits
  20. Scan type                                : Progressive
  21. Bits/(Pixel*Frame)                       : 0.106
  22. Stream size                              : 3.36 GiB (93%)
  23. Title                                    : The.Tax.Collector.2020.1080p.WEB-DL.DD5.1.H264-FGT
  24. Language                                 : English
  25. Default                                  : Yes
  26. Forced                                   : No
  27. Color range                              : Limited
  28. Color primaries                          : BT.709
  29. Transfer characteristics                 : BT.709
  30. Matrix coefficients                      : BT.709
  31. Audio
  32. ID                                       : 2
  33. Format                                   : AC-3
  34. Format/Info                              : Audio Coding 3
  35. Commercial name                          : Dolby Digital
  36. Codec ID                                 : A_AC3
  37. Duration                                 : 1 h 35 min
  38. Bit rate mode                            : Constant
  39. Bit rate                                 : 384 kb/s
  40. Channel(s)                               : 6 channels
  41. Channel layout                           : L R C LFE Ls Rs
  42. Sampling rate                            : 48.0 kHz
  43. Frame rate                               : 31.250 FPS (1536 SPF)
  44. Bit depth                                : 16 bits
  45. Compression mode                         : Lossy
  46. Stream size                              : 262 MiB (7%)
  47. Title                                    : The.Tax.Collector.2020.1080p.WEB-DL.DD5.1.H264-FGT
  48. Language                                 : English
  49. Service kind                             : Complete Main
  50. Default                                  : Yes
  51. Forced                                   : No
  52. Text
  53. ID                                       : 3
  54. Format                                   : UTF-8
  55. Codec ID                                 : S_TEXT/UTF8
  56. Codec ID/Info                            : UTF-8 Plain Text
  57. Duration                                 : 1 h 28 min
  58. Bit rate                                 : 55 b/s
  59. Count of elements                        : 1190
  60. Stream size                              : 35.8 KiB (0%)
  61. Language                                 : English
  62. Default                                  : Yes
  63. Forced                                   : No
  64. Menu
  65. 00:00:00.000                             : en:1
  66. 00:12:36.047                             : en:2
  67. 00:21:11.644                             : en:3
  68. 00:31:10.033                             : en:4
  69. 00:41:25.064                             : en:5
  70. 00:49:08.026                             : en:6
  71. 01:00:15.651                             : en:7
  72. 01:11:55.307                             : en:8
  73. 01:19:55.495                             : en:9
  74. 01:30:32.422                             : en:10
复制代码





                                       
                                       

                                       
                                       
                                       




回复

使用道具 举报

懒得打字嘛,点击右侧快捷回复 【右侧内容,后台自定义】
您需要登录后才可以回帖 登录 | 立即加入

本版积分规则

Archiver|小黑屋| 蓝光电影网 |网站地图

Copyright © 2021 Comsenz Inc. Powered by 蓝光电影网

蓝光电影网

本站内容由用户自主分享和转载自互联网,转载目的在于传递更多信息,并不代表本网赞同其观点和对其真实性负责。

如有侵权、违反国家法律政策行为,请联系我们,我们会第一时间及时清除和处理!

举报反馈邮箱:[email protected]

快速回复 返回顶部 返回列表