找回密码

蓝光电影网

查看: 21|回复: 0

[剧情] 完美十分 Perfect.10.2019.1080p.WEB-DL.DD5.1.H264-FGT 2.90GB

[复制链接]
蓝光币
426
发表于 2021-8-20 00:46:58 | 显示全部楼层 |阅读模式


◎译  名 完善非常
◎片  名 Perfect 10
◎年  代 2019
◎产  地 英国
◎类  别 剧情
◎语  言 英语
◎IMDb评分  7.3/10 from 44 users
◎IMDb链接  https://www.imdb.com/title/tt9070230
◎豆瓣评分 0/10 from 0 users
◎豆瓣链接 https://movie.douban.com/subject/33406862/
◎片  长 83分钟
◎导  演 Eva Riley
◎编  剧 Eva Riley
◎主  演 威廉·阿什 William Ash
       尼科拉·赖特 Nicola Wright
       珍娜·古德温 Jenna Goodwin
       Frankie Box
       Alfie Deegan
       Sharlene Whyte
       Billy Mogford
       Emily Gibson
       Leia Desseaux
       Mitchell Murphy
       Annie Grainger
       Lexa Willis-Gray
       Georgia Simpson

◎标  签 青春 | 兄妹 | rencontre-du-sud | 己亥 | Eva_Riley | DVD2019
◎简  介

  
  在一个雨天,诺拉和阿隆在地铁相遇,两人一见钟情,敏捷坠入爱河。不外,两人对这场情缘的态度各持己见:对诺拉来说,这是一次偶合,对阿隆来,说这是命运的放置。当这对新情侣被卷入一场银行抢劫案中,阿隆不可被击中,在诺拉的怀中竣事了生命。悲伤欲绝诺拉试图想尽方式麻痹自己的豪情。最初,她挑选在纳坦的怀里共度夜晚。希奇的是,虽然纳坦是一个完全陌生的人,诺拉却对他发生一向似曾了解的熟悉感受。纳坦起头加倍频仍的与诺拉来往,诺拉似乎尚未发觉自己与纳坦之间有什么差池劲的联系......
  1. Video
  2. ID                                       : 1
  3. Format                                   : AVC
  4. Format/Info                              : Advanced Video Codec
  5. Format profile                           : [email protected]
  6. Format settings                          : CABAC / 5 Ref Frames
  7. Format settings, CABAC                   : Yes
  8. Format settings, Reference frames        : 5 frames
  9. Codec ID                                 : V_MPEG4/ISO/AVC
  10. Duration                                 : 1 h 23 min
  11. Bit rate                                 : 4 584 kb/s
  12. Width                                    : 1 916 pixels
  13. Height                                   : 800 pixels
  14. Display aspect ratio                     : 2.40:1
  15. Frame rate mode                          : Constant
  16. Frame rate                               : 24.000 FPS
  17. Color space                              : YUV
  18. Chroma subsampling                       : 4:2:0
  19. Bit depth                                : 8 bits
  20. Scan type                                : Progressive
  21. Bits/(Pixel*Frame)                       : 0.125
  22. Stream size                              : 2.67 GiB (92%)
  23. Title                                    : Perfect.10.2019.1080p.WEB-DL.DD5.1.H264-FGT
  24. Language                                 : English
  25. Default                                  : Yes
  26. Forced                                   : No
  27. Color range                              : Limited
  28. Color primaries                          : BT.709
  29. Transfer characteristics                 : BT.709
  30. Matrix coefficients                      : BT.709
  31. Audio
  32. ID                                       : 2
  33. Format                                   : AC-3
  34. Format/Info                              : Audio Coding 3
  35. Commercial name                          : Dolby Digital
  36. Codec ID                                 : A_AC3
  37. Duration                                 : 1 h 23 min
  38. Bit rate mode                            : Constant
  39. Bit rate                                 : 384 kb/s
  40. Channel(s)                               : 6 channels
  41. Channel layout                           : L R C LFE Ls Rs
  42. Sampling rate                            : 48.0 kHz
  43. Frame rate                               : 31.250 FPS (1536 SPF)
  44. Bit depth                                : 16 bits
  45. Compression mode                         : Lossy
  46. Stream size                              : 229 MiB (8%)
  47. Title                                    : Perfect.10.2019.1080p.WEB-DL.DD5.1.H264-FGT
  48. Language                                 : English
  49. Service kind                             : Complete Main
  50. Default                                  : Yes
  51. Forced                                   : No
  52. Menu
  53. 00:00:00.000                             : en:1
  54. 00:13:22.083                             : en:2
  55. 00:25:21.749                             : en:3
  56. 00:40:35.331                             : en:4
  57. 00:53:00.039                             : en:5
  58. 01:06:01.414                             : en:6
  59. 01:20:58.996                             : en:7
复制代码





                                       
                                       

                                       
                                       
                                       




回复

使用道具 举报

懒得打字嘛,点击右侧快捷回复 【右侧内容,后台自定义】
您需要登录后才可以回帖 登录 | 立即加入

本版积分规则

Archiver|小黑屋| 蓝光电影网 |网站地图

Copyright © 2021 Comsenz Inc. Powered by 蓝光电影网

蓝光电影网

本站内容由用户自主分享和转载自互联网,转载目的在于传递更多信息,并不代表本网赞同其观点和对其真实性负责。

如有侵权、违反国家法律政策行为,请联系我们,我们会第一时间及时清除和处理!

举报反馈邮箱:[email protected]

快速回复 返回顶部 返回列表