找回密码

蓝光电影网

查看: 6|回复: 0

[剧情] 绝命鳄口 Black.Water.Abyss.2020.1080p.WEBRip.DD5.1.x264-CM 3.95GB

[复制链接]
蓝光币
382
发表于 2021-8-20 00:47:03 | 显示全部楼层 |阅读模式


◎译  名 绝命鳄口 / Black Water: The Abyss / 黑水:深渊
◎片  名 Black Water: Abyss
◎年  代 2020
◎产  地 澳大利亚 / 美国
◎类  别 剧情 / 行动 / 可骇
◎语  言 英语
◎上映日期 2020-07-04(英国) / 2020-08-07(美国)
◎IMDb评分  5.4/10 from 86 users
◎IMDb链接  https://www.imdb.com/title/tt7978672
◎豆瓣评分 5.1/10 from 59 users
◎豆瓣链接 https://movie.douban.com/subject/34431448/
◎片  长 99分钟
◎导  演 安德鲁·陶克吉  Andrew Traucki
◎编  剧 约翰·莱德利 John Ridley / 莎拉·史姑娘 Sarah Smith
◎主  演 杰西卡·麦克娜美 Jessica McNamee
       卢克·米切尔 Luke Mitchell
       阿玛莉·沃德 Amali Ward
       安东尼·J·夏普 Anthony J. Sharpe
       本杰明·霍特杰斯 Benjamin Hoetjes
       J·玛 J Ma
       菊池润美 Rumi Kikuchi
       林恩·罗斯 Lynne Rose

◎标  签 惊悚 | 2020 | 灾难 | 美国 | 澳大利亞 | 可骇 | 行动 | 剧情
◎简  介

  
  一对喜好冒险的佳耦压服他们的朋友去摸索澳大利亚北部森林中一个从未有人踏入的洞窟系统。忽然狂风雨到临,大师决议进上天下洞窟出亡。不想大水冲进了洞窟,氧气含量逐步下降,大师被困在了一个完全未知的情况里。他们没有推测的是,湿润的空气和不竭上升的水位只是此次旅程最小的应战,大水还带来了最危险的捕食者:一群危险又饥饿的鳄鱼。当危险逐步升温,这群朋友之间相互隐瞒的奥秘渐渐被揭开,他们争持打架、相互变节,只为在这个险境中保存下来。
  1. Video
  2. ID                                       : 1
  3. Format                                   : AVC
  4. Format/Info                              : Advanced Video Codec
  5. Format profile                           : [email protected]
  6. Format settings                          : CABAC / 2 Ref Frames
  7. Format settings, CABAC                   : Yes
  8. Format settings, Reference frames        : 2 frames
  9. Codec ID                                 : V_MPEG4/ISO/AVC
  10. Duration                                 : 1 h 38 min
  11. Bit rate                                 : 5 372 kb/s
  12. Width                                    : 1 920 pixels
  13. Height                                   : 1 080 pixels
  14. Display aspect ratio                     : 16:9
  15. Frame rate mode                          : Constant
  16. Frame rate                               : 23.976 (24000/1001/189150) FPS
  17. Color space                              : YUV
  18. Chroma subsampling                       : 4:2:0
  19. Bit depth                                : 8 bits
  20. Scan type                                : Progressive
  21. Bits/(Pixel*Frame)                       : 0.108
  22. Stream size                              : 3.69 GiB (93%)
  23. Writing library                          : x264 core 155 r2901 7d0ff22
  24. Language                                 : English
  25. Default                                  : Yes
  26. Forced                                   : No
  27. Color range                              : Limited
  28. Color primaries                          : BT.709
  29. Transfer characteristics                 : BT.709
  30. Matrix coefficients                      : BT.709
  31. Audio
  32. ID                                       : 2
  33. Format                                   : AC-3
  34. Format/Info                              : Audio Coding 3
  35. Commercial name                          : Dolby Digital
  36. Codec ID                                 : A_AC3
  37. Duration                                 : 1 h 38 min
  38. Bit rate mode                            : Constant
  39. Bit rate                                 : 384 kb/s
  40. Channel(s)                               : 6 channels
  41. Channel layout                           : L R C LFE Ls Rs
  42. Sampling rate                            : 48.0 kHz
  43. Frame rate                               : 31.250 FPS (1536 SPF)
  44. Bit depth                                : 16 bits
  45. Compression mode                         : Lossy
  46. Stream size                              : 270 MiB (7%)
  47. Language                                 : English
  48. Service kind                             : Complete Main
  49. Default                                  : Yes
  50. Forced                                   : No
  51. Text
  52. ID                                       : 3
  53. Format                                   : UTF-8
  54. Codec ID                                 : S_TEXT/UTF8
  55. Codec ID/Info                            : UTF-8 Plain Text
  56. Duration                                 : 1 h 33 min
  57. Bit rate                                 : 23 b/s
  58. Count of elements                        : 785
  59. Stream size                              : 16.4 KiB (0%)
  60. Language                                 : English
  61. Default                                  : Yes
  62. Forced                                   : No
复制代码






                                       
                                       

                                       
                                       
                                       




回复

使用道具 举报

懒得打字嘛,点击右侧快捷回复 【右侧内容,后台自定义】
您需要登录后才可以回帖 登录 | 立即加入

本版积分规则

Archiver|小黑屋| 蓝光电影网 |网站地图

Copyright © 2021 Comsenz Inc. Powered by 蓝光电影网

蓝光电影网

本站内容由用户自主分享和转载自互联网,转载目的在于传递更多信息,并不代表本网赞同其观点和对其真实性负责。

如有侵权、违反国家法律政策行为,请联系我们,我们会第一时间及时清除和处理!

举报反馈邮箱:[email protected]

快速回复 返回顶部 返回列表