找回密码

蓝光电影网

查看: 12|回复: 0

[剧情] 湖边疑云/一切由浮尸开始 Jindabyne.2006.1080p.STAN.WEBRip.DD5.1.x264-playWEB 5.52GB

[复制链接]
蓝光币
426
发表于 2021-8-20 00:47:18 | 显示全部楼层 |阅读模式


◎译  名 湖边疑云 / 一切由浮尸起头 / 浮尸的风光
◎片  名 Jindabyne
◎年  代 2006
◎产  地 澳大利亚
◎类  别 剧情 / 悬疑 / 惊悚 / 犯罪
◎语  言 英语
◎上映日期 2006-07-20
◎IMDb评分  6.3/10 from 6313 users
◎IMDb链接  https://www.imdb.com/title/tt0382765
◎豆瓣评分 5.9/10 from 142 users
◎豆瓣链接 https://movie.douban.com/subject/1837147/
◎片  长 USA: 123 分钟
◎导  演 Ray Lawrence
◎编  剧 Beatrix Christian
◎主  演 Laura Linney
       Gabriel Byrne
       Chris Haywood
       Tatea Reilly
       Sean Rees-Wemyss

◎标  签 澳大利亚 | 2006 | 悬疑 | 澳洲 | 种族题目 | 我看过的英语电影 | Ray_Lawrence | 澳大利亚电影
◎简  介

  
  Stewart Kane, an Irishman living in the Australian town of Jindabyne, is on a fishing trip in isolated hill country with three other men when they discover the body of a murdered girl in the river. Rather than return to the town immediately, they continue fishing and report their gruesome find days later. Stewart's wife Claire is the last to find out. Deeply disturbed by her husband's action, her faith in her relationship with Stewart is shaken to the core. She wants to understand and tries to make things right. In her determination to help the victim's family Claire sets herself not only against her own family and friends but also those of the dead girl. Her marriage is taken to the brink and her peaceful life with Stewart and their young son hangs in the balance. The story of a murder and a marriage. A powerful and original film about the things that haunt us.
  1. Video
  2. ID                                       : 1
  3. Format                                   : AVC
  4. Format/Info                              : Advanced Video Codec
  5. Format profile                           : [email protected]
  6. Format settings                          : CABAC / 4 Ref Frames
  7. Format settings, CABAC                   : Yes
  8. Format settings, Reference frames        : 4 frames
  9. Codec ID                                 : V_MPEG4/ISO/AVC
  10. Duration                                 : 1 h 58 min
  11. Bit rate                                 : 6 261 kb/s
  12. Width                                    : 1 920 pixels
  13. Height                                   : 1 080 pixels
  14. Display aspect ratio                     : 16:9
  15. Frame rate mode                          : Constant
  16. Frame rate                               : 25.000 FPS
  17. Color space                              : YUV
  18. Chroma subsampling                       : 4:2:0
  19. Bit depth                                : 8 bits
  20. Scan type                                : Progressive
  21. Bits/(Pixel*Frame)                       : 0.121
  22. Stream size                              : 5.19 GiB (94%)
  23. Default                                  : Yes
  24. Forced                                   : No
  25. Color range                              : Limited
  26. Color primaries                          : BT.709
  27. Transfer characteristics                 : BT.709
  28. Matrix coefficients                      : BT.709
  29. Audio
  30. ID                                       : 2
  31. Format                                   : AC-3
  32. Format/Info                              : Audio Coding 3
  33. Commercial name                          : Dolby Digital
  34. Codec ID                                 : A_AC3
  35. Duration                                 : 1 h 58 min
  36. Bit rate mode                            : Constant
  37. Bit rate                                 : 384 kb/s
  38. Channel(s)                               : 6 channels
  39. Channel layout                           : L R C LFE Ls Rs
  40. Sampling rate                            : 48.0 kHz
  41. Frame rate                               : 31.250 FPS (1536 SPF)
  42. Bit depth                                : 16 bits
  43. Compression mode                         : Lossy
  44. Stream size                              : 326 MiB (6%)
  45. Language                                 : English
  46. Service kind                             : Complete Main
  47. Default                                  : Yes
  48. Forced                                   : No
  49. Text
  50. ID                                       : 3
  51. Format                                   : UTF-8
  52. Codec ID                                 : S_TEXT/UTF8
  53. Codec ID/Info                            : UTF-8 Plain Text
  54. Duration                                 : 1 h 58 min
  55. Bit rate                                 : 47 b/s
  56. Count of elements                        : 1873
  57. Stream size                              : 41.1 KiB (0%)
  58. Language                                 : English
  59. Default                                  : Yes
  60. Forced                                   : No
复制代码






                                       
                                       

                                       
                                       
                                       




回复

使用道具 举报

懒得打字嘛,点击右侧快捷回复 【右侧内容,后台自定义】
您需要登录后才可以回帖 登录 | 立即加入

本版积分规则

Archiver|小黑屋| 蓝光电影网 |网站地图

Copyright © 2021 Comsenz Inc. Powered by 蓝光电影网

蓝光电影网

本站内容由用户自主分享和转载自互联网,转载目的在于传递更多信息,并不代表本网赞同其观点和对其真实性负责。

如有侵权、违反国家法律政策行为,请联系我们,我们会第一时间及时清除和处理!

举报反馈邮箱:[email protected]

快速回复 返回顶部 返回列表