找回密码

蓝光电影网

查看: 13|回复: 0

[剧情] 伯德街小岛/伯德街上的孤岛 The.Island.on.Bird.Street.1997.1080p.AMZN.WEBRip.DDP2.0.x264-iKA 6.84GB

[复制链接]
蓝光币
386
发表于 2021-8-20 00:47:31 | 显示全部楼层 |阅读模式


◎译  名 伯德街小岛 / 伯德街上的孤岛 / 来自天堂的冠军
◎片  名 The Island on Bird Street
◎年  代 1997
◎产  地 丹麦 / 英国 / 德国
◎类  别 剧情 / 战争
◎语  言 英语 / 德语 / 拉丁语
◎上映日期 2001-03-18
◎IMDb链接  http://www.imdb.com/title/tt0119389/
◎豆瓣评分 8.5/10 from 687 users
◎豆瓣链接 https://movie.douban.com/subject/1937822/
◎片  长 103分钟
◎导  演 索伦·克拉格·雅格布森 S?ren Kragh-Jacobsen
◎编  剧 约翰·金史姑娘 John Goldsmith / 托尼·格里索尼 Tony Grisoni
◎主  演 西蒙·格雷格 Simon Gregor
       乔丹·基兹克 Jordan Kiziuk
       帕特里克·博金 Patrick Bergin
       詹姆斯·伯拉姆 James Bolam

◎标  签 二战 | 丹麦 | 战争 | 伯德街小岛 | 丹麦电影 | 童年 | 保存 | 儿童
◎简  介

  
  第二次天下大战时代,在一个用高墙围起来的犹太区的烧毁大工场里,里面的犹太人坐卧不安的生活和工作着,而且人数越来越少,由于纳粹时不时的就会进来把一些人带走,先是妇女儿童,再是老人,后来就要全数带走了,他们的了局不可思议。在一次剿灭中,一位父亲想让他的父亲和儿子逃命,就预备和纳粹拼命,可是由于有人告发,失利了,这时那位祖父为了让孙子活命,义无返顾的占了出来,他的小孙子临时躲过了灾难,躲了起来,那位祖父留下的就只要大街上的一顶帽子了。
  阿谁小男孩深信他的父亲会返来找他,他苦守在阿谁烧毁的工场里,陪伴他的只要一支小白鼠。人到了保存的极限就会爆发出不成设想的才能和聪明。我看片时,一向为阿谁小男孩揪着心,没有吃的,没有水,还要躲避纳粹和残剩侥幸躲起来的犹太报酬保存而动的杀机。可是他挺过来了,甚至像鲁宾逊一样,有了一个自己的“树屋”,在阿谁高高的角落里,他透过一个小小的窗棂,一个千里镜里观察着里面“平和”的天下……
◎获奖情况  
  第47届柏林国际电影节(1997)
  金熊奖 最好影片(提名) 索伦·克拉格·雅格布森
  银熊奖 精采成就 泽贝纽·普瑞斯纳
  出格说起 乔丹·基兹克
  1. Video
  2. ID                                       : 1
  3. Format                                   : AVC
  4. Format/Info                              : Advanced Video Codec
  5. Format profile                           : [email protected]
  6. Format settings                          : CABAC / 4 Ref Frames
  7. Format settings, CABAC                   : Yes
  8. Format settings, Reference frames        : 4 frames
  9. Codec ID                                 : V_MPEG4/ISO/AVC
  10. Duration                                 : 1 h 47 min
  11. Bit rate mode                            : Constant
  12. Bit rate                                 : 8 882 kb/s
  13. Nominal bit rate                         : 10 000 kb/s
  14. Width                                    : 1 920 pixels
  15. Height                                   : 1 040 pixels
  16. Display aspect ratio                     : 1.85:1
  17. Frame rate mode                          : Constant
  18. Frame rate                               : 23.976 (24000/1001/189150) FPS
  19. Color space                              : YUV
  20. Chroma subsampling                       : 4:2:0
  21. Bit depth                                : 8 bits
  22. Scan type                                : Progressive
  23. Bits/(Pixel*Frame)                       : 0.186
  24. Stream size                              : 6.67 GiB (98%)
  25. Default                                  : Yes
  26. Forced                                   : No
  27. Color range                              : Limited
  28. Color primaries                          : BT.709
  29. Transfer characteristics                 : BT.709
  30. Matrix coefficients                      : BT.709
  31. Audio
  32. ID                                       : 2
  33. Format                                   : E-AC-3
  34. Format/Info                              : Enhanced AC-3
  35. Commercial name                          : Dolby Digital Plus
  36. Codec ID                                 : A_EAC3
  37. Duration                                 : 1 h 47 min
  38. Bit rate mode                            : Constant
  39. Bit rate                                 : 224 kb/s
  40. Channel(s)                               : 2 channels
  41. Channel layout                           : L R
  42. Sampling rate                            : 48.0 kHz
  43. Frame rate                               : 31.250 FPS (1536 SPF)
  44. Compression mode                         : Lossy
  45. Stream size                              : 172 MiB (2%)
  46. Language                                 : English
  47. Service kind                             : Complete Main
  48. Default                                  : Yes
  49. Forced                                   : No
  50. Text
  51. ID                                       : 3
  52. Format                                   : UTF-8
  53. Codec ID                                 : S_TEXT/UTF8
  54. Codec ID/Info                            : UTF-8 Plain Text
  55. Duration                                 : 1 h 43 min
  56. Bit rate                                 : 27 b/s
  57. Count of elements                        : 842
  58. Stream size                              : 20.7 KiB (0%)
  59. Title                                    : SDH
  60. Language                                 : English
  61. Default                                  : No
  62. Forced                                   : No
复制代码






                                       
                                       

                                       
                                       
                                       




回复

使用道具 举报

懒得打字嘛,点击右侧快捷回复 【右侧内容,后台自定义】
您需要登录后才可以回帖 登录 | 立即加入

本版积分规则

Archiver|小黑屋| 蓝光电影网 |网站地图

Copyright © 2021 Comsenz Inc. Powered by 蓝光电影网

蓝光电影网

本站内容由用户自主分享和转载自互联网,转载目的在于传递更多信息,并不代表本网赞同其观点和对其真实性负责。

如有侵权、违反国家法律政策行为,请联系我们,我们会第一时间及时清除和处理!

举报反馈邮箱:[email protected]

快速回复 返回顶部 返回列表