找回密码

蓝光电影网

查看: 8|回复: 0

[剧情] 玉米粉圆饼汤 Tortilla.Soup.2001.1080p.AMZN.WEBRip.DDP5.1.x264-IKA 7.64GB

[复制链接]
蓝光币
426
发表于 2021-8-20 00:47:34 | 显示全部楼层 |阅读模式


◎译  名 玉米粉圆饼汤
◎片  名 Tortilla Soup
◎年  代 2001
◎产  地 美国
◎类  别 剧情 / 笑剧 / 恋爱
◎语  言 英语 / 西班牙语
◎上映日期 2001-08-24
◎IMDb评分  6.7/10 from 4115 users
◎IMDb链接  https://www.imdb.com/title/tt0255653
◎豆瓣评分 0/10 from 0 users
◎豆瓣链接 https://movie.douban.com/subject/1422959/
◎片  长 102 分钟
◎导  演 María Ripoll
◎编  剧 李安 Ang Lee / 王蕙玲 Hui-Ling Wang / 詹姆斯·夏慕斯 James Schamus
◎主  演 杰奎琳·奥拉德丝 Jacqueline Obradors
       Tamara Mello
       Judy Herrera
       尼科莱·金斯基 Nikolai Kinski
       伊丽莎白·佩纳 Elizabeth Pe?a
       Constance Marie

◎标  签 李安 | 美食 | 美国电影 | 美国 | 翻拍 | 墨西哥 | 生活 | 青春
◎简  介

  
  李安的《饮食男女》在美国居然被翻拍了两次,一次是墨西哥移民版,一次是黑人版。墨西哥移民版《Tortilla Soup》是向李安买了剧本版权,剧情如出一辙,都是三个女儿,爸爸大厨,只不外吧地址搬到了洛杉矶,酿成了一个墨西哥移民家庭的故事。爸爸做的满是墨西哥菜,也是墨西哥菜大展览,上来第一个就是摘辣椒和番茄,墨西哥菜必不成少的调料。
  1. Video
  2. ID                                       : 1
  3. Format                                   : AVC
  4. Format/Info                              : Advanced Video Codec
  5. Format profile                           : [email protected]
  6. Format settings                          : CABAC / 4 Ref Frames
  7. Format settings, CABAC                   : Yes
  8. Format settings, Reference frames        : 4 frames
  9. Codec ID                                 : V_MPEG4/ISO/AVC
  10. Duration                                 : 1 h 43 min
  11. Bit rate mode                            : Constant
  12. Bit rate                                 : 10 000 kb/s
  13. Width                                    : 1 920 pixels
  14. Height                                   : 1 080 pixels
  15. Display aspect ratio                     : 16:9
  16. Frame rate mode                          : Constant
  17. Frame rate                               : 23.976 (24000/1001/189150) FPS
  18. Color space                              : YUV
  19. Chroma subsampling                       : 4:2:0
  20. Bit depth                                : 8 bits
  21. Scan type                                : Progressive
  22. Bits/(Pixel*Frame)                       : 0.201
  23. Stream size                              : 7.18 GiB (94%)
  24. Default                                  : Yes
  25. Forced                                   : No
  26. Color range                              : Limited
  27. Color primaries                          : BT.709
  28. Transfer characteristics                 : BT.709
  29. Matrix coefficients                      : BT.709
  30. Audio
  31. ID                                       : 2
  32. Format                                   : E-AC-3
  33. Format/Info                              : Enhanced AC-3
  34. Commercial name                          : Dolby Digital Plus
  35. Codec ID                                 : A_EAC3
  36. Duration                                 : 1 h 43 min
  37. Bit rate mode                            : Constant
  38. Bit rate                                 : 640 kb/s
  39. Channel(s)                               : 6 channels
  40. Channel layout                           : L R C LFE Ls Rs
  41. Sampling rate                            : 48.0 kHz
  42. Frame rate                               : 31.250 FPS (1536 SPF)
  43. Compression mode                         : Lossy
  44. Stream size                              : 474 MiB (6%)
  45. Language                                 : English
  46. Service kind                             : Complete Main
  47. Default                                  : Yes
  48. Forced                                   : No
  49. Text
  50. ID                                       : 3
  51. Format                                   : UTF-8
  52. Codec ID                                 : S_TEXT/UTF8
  53. Codec ID/Info                            : UTF-8 Plain Text
  54. Duration                                 : 1 h 37 min
  55. Bit rate                                 : 65 b/s
  56. Count of elements                        : 1529
  57. Stream size                              : 46.6 KiB (0%)
  58. Title                                    : SDH
  59. Language                                 : English
  60. Default                                  : No
  61. Forced                                   : No
复制代码






                                       
                                       

                                       
                                       
                                       




回复

使用道具 举报

懒得打字嘛,点击右侧快捷回复 【右侧内容,后台自定义】
您需要登录后才可以回帖 登录 | 立即加入

本版积分规则

Archiver|小黑屋| 蓝光电影网 |网站地图

Copyright © 2021 Comsenz Inc. Powered by 蓝光电影网

蓝光电影网

本站内容由用户自主分享和转载自互联网,转载目的在于传递更多信息,并不代表本网赞同其观点和对其真实性负责。

如有侵权、违反国家法律政策行为,请联系我们,我们会第一时间及时清除和处理!

举报反馈邮箱:[email protected]

快速回复 返回顶部 返回列表